Загрузка...
Ошибка

Камасутра - позиции цветущего сада / Kama Sutra - positions of a blossoming garden (Кеннет Кнолл) [2005, Эротика, Обучающее видео, DVDRip]

Ответить на тему

Riga

+1  
Камасутра - позиции цветущего сада
Kama Sutra - positions of a blossoming garden
- Год выпуска: 2005
Страна: США , Focus Film International Ltd.
Жанр: Эротика, Обучающее видео
Продолжительность: 00:56:24
Перевод: Профессиональный (одноголосый)-Режиссер: Кеннет Кнолл-В ролях: Реальные пары-Описание:
Позиции Цветущего сада самые невероятные и очень возбуждающие из всех позиций Камасутры. Изучив их, Вы сможете без труда переходить от одной к другой, не тратя время зря и возбуждаясь еще больше. Созданные в XVI веке арабским мудрецом эти позиции до сих пор остаются очень актуальными, а некоторые из них пользуются огромной популярностью среди сексологов всего мира для разнообразия сексуальной жизни обращающихся к ник семей. Эта программа содержит качественное видео с подробными комментариями. Каждое движение подробно описывается, также даются рекомендации ведущих сексологов мира для обоих партнеров.
Откройте дверь в мир истинно красивой и чувственной ЭРОТИКИ!-
-
Качество: DVDRip
Формат: avi
Видео кодек: Xvid
Аудио кодек: AC3
Видео: XviD, 704x528, 29.970 fps, 1473 Кбит/с
Аудио: AC3, 48000 Hz, 6 ch, 384 Кбит/с

-

MediaInfo:

Общее
Полное имя : Kamasutra.pozicii.cvetuwego.sada.2005.XviD.DVDRip.avi
Формат : AVI
Формат/Информация : Audio Video Interleave
Размер файла : 754 Мбайт
Продолжительность : 56 м.
Общий поток : 1869 Кбит/сек
Видео
Идентификатор : 0
Формат : MPEG-4 Visual
Профиль формата : [email protected]
Параметр BVOP формата : Нет
Параметр QPel формата : Нет
Параметр GMC формата : Без точки перехода
Параметр матрицы формата : Default (H.263)
Идентификатор кодека : XVID
Идентификатор кодека/Подсказка : XviD
Продолжительность : 56 м.
Продолжительность оригинала : 56 м.
Битрейт : 1473 Кбит/сек
Ширина : 704 пикселя
Высота : 528 пикселей
Соотношение сторон : 4:3
Частота кадров : 29,970 кадров/сек
Цветовое пространство : YUV
Субдискретизация насыщенности : 4:2:0
Битовая глубина : 8 бит
Тип развёртки : Прогрессивная
Метод сжатия : С потерями
Бит/(Пиксели*Кадры) : 0.132
Размер потока : 594 Мбайт (79%)
Библиотека кодирования : XviD 1.1.2 (UTC 2006-11-01)
Аудио
Идентификатор : 1
Формат : AC-3
Формат/Информация : Audio Coding 3
Расширение режима : CM (complete main)
Параметр Endianness формата : Big
Идентификатор кодека : 2000
Продолжительность : 56 м.
Вид битрейта : Постоянный
Битрейт : 384 Кбит/сек
Каналы : 6 каналов
Расположение каналов : Front: L C R, Side: L R, LFE
Частота : 48,0 КГц
Битовая глубина : 16 бит
Метод сжатия : С потерями
Размер потока : 155 Мбайт (21%)
Выравнивание : Соединение по промежуткам
Продолжительность промежутка : 32 мс. (0,96 видеокадр)

Рейтинг MPAA:

Рейтинг R - Детям до 17 лет обязательно присутствие родителей

Рейтинг R получают фильмы, в содержании которых обязательно содержится материал, предназначенный только для взрослой аудитории. Родителям рекомендуется хорошо подумать, прежде чем посмотреть такой фильм вместе со своими детьми.
Фильм, получивший рейтинг R, скорее всего содержит сексуальные сцены, эпизоды с употреблением наркотиков, нецензурную брань, фрагменты с насилием и т.д.

Скриншоты

     
Скачать раздачу

Просто зарегистрируйтесь и качайте на максимальной скорости (до 100 мбит/с)!

Обратите внимание, что локальная скорость может быть достинута лишь у абонентов интернет-провайдеров Ивановской области. Если вы не являетесь жителем Ивановской области (не подключены к местным стационарным интернет-провайдерам), скорость скачивания с ресурса у вас будет обычной, согласно вашему тарифному плану. Если же вы хотите использовать весь спектр возможностей ресурса - регистрация является обязательной, ведь это так просто!

 

revizor

0  
К сожалению ничего интересного или нового Sad
Riga смотри порно, по этому фильму ничего полезного не почерпнешь.
 
▲ Наверх