Загрузка...
Ошибка

Коллекция обучающих фильмов по малоэтажному строительству [2001-2010, Обучающее видео, TVRip]

Ответить на тему

Riga

0  
Коллекция обучающих фильмов по малоэтажному
строительству
- Год выпуска: 2001-2010
Страна: Россия
Тематика: Строительство
Тип материала: Видеоуроки
Продолжительность: ~ 13:26:00
Язык: Русский
Субтитры: отсутствуют-Автор: не известен-Описание: Коллекция обучающих фильмов по малоэтажному строительству (2001-2010)-Качество: TVRip
Формат: AVI
Видео кодек: XviD
Аудио кодек: MP3
Видео: 384x288 (1.33:1), 25 fps, XviD MPEG-4 ~959 kbps avg, 0.35 bit/pixel
Аудио: 24 kHz, MPEG Layer 3, 2 ch, ~56.00 kbps avg

Содержание

Деревянный дом. Особенности окончания строительства
Дом из бруса
Дом из клееного бруса. Финальная ч. строительства
Дом из теплоэффект. блоков по технологии EcoPan
Дом из теплых кубиков
Избыточность при строительстве
Как определить качество строительства каменного дома
Опыт предков в строительстве
Оригинальные виды коттеджного строительства- год спустя
Ошибки при строительстве деревянного дома
Помогаем телезрителям в строительстве дома
Строительство большого дома из спецблоков
Строительство деревянного дома на основе деревянной фермы
Строительство дома. Основной этап - коробка дома
Строительство домов шале. Часть 2
Строительство домов по канадской технологии
Строительство загородных домов
Строительство каркасных стен
Строительство каркасных крыш
Строительство металло-каркасного дома
Строительство полов и лестниц
Строительство экологического дома
Фильм 1-Ноосфера
Фильм 2-Элевит
Строительство лестниц
Дом из бруса
Строительство скважин. Часть 1
Строительство скважин. Часть 2

MediaInfo

Код:
General
Complete name                  : E:\Обучение\Коллекция фильмов по строительству\Basic Stairbuilding.avi
Format                         : AVI
Format/Info                    : Audio Video Interleave
File size                      : 733 MiB
Duration                       : 1h 5mn
Overall bit rate               : 1 561 Kbps
Video
ID                             : 1
Format                         : MPEG-4 Visual
Format profile                 : [email protected]
Format settings, BVOP          : 2
Format settings, QPel          : No
Format settings, GMC           : No warppoints
Format settings, Matrix        : Default (H.263)
Muxing mode                    : Packed bitstream
Codec ID                       : XVID
Codec ID/Hint                  : XviD
Duration                       : 1h 5mn
Bit rate                       : 1 419 Kbps
Width                          : 656 pixels
Height                         : 480 pixels
Display aspect ratio           : 4:3
Frame rate                     : 29.970 fps
Color space                    : YUV
Chroma subsampling             : 4:2:0
Bit depth                      : 8 bits
Scan type                      : Progressive
Compression mode               : Lossy
Bits/(Pixel*Frame)             : 0.150
Stream size                    : 667 MiB (91%)
Writing library                : XviD 1.1.0 Beta2 (UTC 2005-04-04)
Audio
ID                             : 0
Format                         : MPEG Audio
Format version                 : Version 1
Format profile                 : Layer 3
Mode                           : Dual mono
Codec ID                       : 55
Codec ID/Hint                  : MP3
Duration                       : 1h 5mn
Bit rate mode                  : Constant
Bit rate                       : 128 Kbps
Channel(s)                     : 2 channels
Sampling rate                  : 44.1 KHz
Compression mode               : Lossy
Delay relative to video        : 26ms
Stream size                    : 60.1 MiB (8%)
Alignment                      : Split accross interleaves
Interleave, duration           : 33 ms (1.00 video frame)

Скриншоты

    
    
Скачать раздачу

Просто зарегистрируйтесь и качайте на максимальной скорости (до 100 мбит/с)!

Обратите внимание, что локальная скорость может быть достинута лишь у абонентов интернет-провайдеров Ивановской области. Если вы не являетесь жителем Ивановской области (не подключены к местным стационарным интернет-провайдерам), скорость скачивания с ресурса у вас будет обычной, согласно вашему тарифному плану. Если же вы хотите использовать весь спектр возможностей ресурса - регистрация является обязательной, ведь это так просто!

 

Топик был перенесен из форума Новые релизы в форум Строительство, ремонт и дизайн помещений

Riga
 
▲ Наверх