Загрузка...
Ошибка

Полиглот. Французский с нуля за 16 часов! (Уроки 16 из 16)(Дмитрий Петров) [2013 г.,интеллектуальное реалити-шоу, интенсивный курс изучения французского языка, SATRip]

Ответить на тему

Safi_Cat

0  

Название: Полиглот. Французский с нуля за 16 часов!
Год выпуска: 2013
Страна: Россия
Жанр: интеллектуальное реалити-шоу, интенсивный курс изучения французского языка.
Издатель: Россия.Телеканал "Культура"
Продолжительность: ~44 мин на выпуск
Преподаватель: Дмитрий Петров
Режиссер: Сергей Дерябин
В ролях: Николай Быстров, Вера Полозкова, Сергей Лукьяненко, Агния Кузнецова, Клим Шипенко, Соня Карпунина, Иван Жвакин, Наталья Лесниковская
Формат: AVI
Качество: SATRip
Видео: XviD, 640x480, 792-822 kbps
Аудио: MP3, 2ch, 80-128 kbps

media info (1 серия)

General
Complete name : E:\Videos\torrent\Полиглот. Французский с нуля за 16 часов!\01.avi
Format : AVI
Format/Info : Audio Video Interleave
File size : 278 MiB
Duration : 43mn 57s
Overall bit rate : 885 Kbps
Writing application : MEncoder UNKNOWN-4.2.4
Writing library : MPlayer
Video
ID : 0
Format : MPEG-4 Visual
Format profile : Advanced [email protected]
Format settings, BVOP : 1
Format settings, QPel : No
Format settings, GMC : No warppoints
Format settings, Matrix : Default (MPEG)
Codec ID : DX50
Codec ID/Hint : DivX 5
Duration : 43mn 57s
Bit rate : 792 Kbps
Width : 640 pixels
Height : 480 pixels
Display aspect ratio : 4:3
Frame rate : 25.000 fps
Color space : YUV
Chroma subsampling : 4:2:0
Bit depth : 8 bits
Scan type : Progressive
Compression mode : Lossy
Bits/(Pixel*Frame) : 0.103
Stream size : 249 MiB (90%)
Writing library : XviD 1.2.1 (UTC 2008-12-04)
Audio
ID : 1
Format : MPEG Audio
Format version : Version 1
Format profile : Layer 3
Codec ID : 55
Codec ID/Hint : MP3
Duration : 43mn 57s
Bit rate mode : Constant
Bit rate : 80.0 Kbps
Channel(s) : 1 channel
Sampling rate : 44.1 KHz
Compression mode : Lossy
Delay relative to video : 40ms
Stream size : 25.2 MiB (9%)
Alignment : Aligned on interleaves
Interleave, duration : 26 ms (0.65 video frame)
       
Скачать раздачу

Просто зарегистрируйтесь и качайте на максимальной скорости (до 100 мбит/с)!

Обратите внимание, что локальная скорость может быть достинута лишь у абонентов интернет-провайдеров Ивановской области. Если вы не являетесь жителем Ивановской области (не подключены к местным стационарным интернет-провайдерам), скорость скачивания с ресурса у вас будет обычной, согласно вашему тарифному плану. Если же вы хотите использовать весь спектр возможностей ресурса - регистрация является обязательной, ведь это так просто!

 

Топик был перенесен из форума Новые релизы в форум Французский язык

Riga
 
▲ Наверх