Загрузка...
Ошибка

(Symphonic, Melodic Death Metal) Dark Lunacy - Live In Mexico City [2013 г., DVD9]

Ответить на тему

Kelerva

0  
Dark Lunacy - Live In Mexico City
-Исполнитель: Dark Lunacy
Наименование: Live In Mexico City
Год выпуска: September 23rd, 2013
Страна: Italy (Parma, Emilia-Romagna)
Жанр: Symphonic, Melodic Death Metal
Продолжительность: 01:25:28 + 00:29:23
Перевод: Отсутствует
Релизер (Источник): stranger296 (rutracker.org)-Режиссер / лейбл: Fuel Records-Треклист:
01. Intro
02. Aurora
03. Forgotten
04. Through the Non-Time
05. Pulkovo Meridian
06. Motherland
07. Curtains
08. Heart of Leningrad
09. Varen'ka
10. Cold Embrace
11. Stalingrad
12. Fall
13. Dolls
14. Credits
15. Teotihuacan (Video)
16. Autographs (Video)
17. Backstage (Video)
18. Sto Festival Obscuro (30.08.2003)
19. Eyescream Metal Fest IV (03.03.2012)
20. Autographs
21. Teotihuacan 2012

Принимали участие

Gaspare Frazzitta - Artwork
Germàn Garcia - Photography
Alessandro Vagnoni - Mixing
Paolo Ojetti - Engineering (live sound)
Vittorio Lombardoni - Producer
Oscar Reyes Torres - Producer, Editing
Oscar Fuentes Lobato - Producer (audio)

Тех. данные

Качество: DVD9
Формат: DVD Video
Видео кодек: MPEG2
Аудио кодек: AC3
Видео: PAL (16:9) 6986 Кбит/сек: (9000 Кбит/сек) 720 x 576 at 25.000 fps
Аудио: AC-3, 192 Кбит/сек: 2 канала, 48,0 КГц
Cубтитры: нет

Mediainfo

Общее
Полное имя : D:\Музыкальные DVD\Dark Lunacy - 2013 - Live In Mexico City (Boxed Set, DVD) by stranger296\VIDEO_TS\VTS_10_3.VOB
Формат : MPEG-PS
Размер файла : 1024 Мбайт
Продолжительность : 19 м.
Режим общего битрейта : Переменный
Общий поток : 7324 Кбит/сек
Видео
Идентификатор : 224 (0xE0)
Формат : MPEG Video
Версия формата : Version 2
Профиль формата : [email protected]
Параметр BVOP формата : Да
Параметр матрицы формата : По умолчанию
Параметр GOP формата : M=3, N=12
Продолжительность : 19 м.
Вид битрейта : Переменный
Битрейт : 6986 Кбит/сек
Максимальный битрейт : 9000 Кбит/сек
Ширина : 720 пикселей
Высота : 576 пикселей
Соотношение сторон : 16:9
Частота кадров : 25,000 кадров/сек
Стандарт вещания : PAL
Цветовое пространство : YUV
Субдискретизация насыщенности : 4:2:0
Битовая глубина : 8 бит
Тип развёртки : Прогрессивная
Метод сжатия : С потерями
Бит/(Пиксели*Кадры) : 0.674
Временной код первого кадра : 00:39:42:04
Оригинал временного кода : Group of pictures header
Размер потока : 976 Мбайт (95%)
Аудио
Идентификатор : 189 (0xBD)-128 (0x80)
Формат : AC-3
Формат/Информация : Audio Coding 3
Расширение режима : CM (complete main)
Параметр Endianness формата : Big
Режим смешивания : DVD-Video
Продолжительность : 19 м.
Вид битрейта : Постоянный
Битрейт : 192 Кбит/сек
Каналы : 2 канала
Расположение каналов : Front: L R
Частота : 48,0 КГц
Битовая глубина : 16 бит
Метод сжатия : С потерями
Задержка видео : -520 мс.
Размер потока : 26,8 Мбайт (3%)
Меню

Скриншоты



Прошу обратить внимание на то, что весь материал, представленный выше, предназначен исключительно для ознакомления!
Приобретайте, легальные диски, которые станут достойным украшением вашей коллекции!
Скачать раздачу

Просто зарегистрируйтесь и качайте на максимальной скорости (до 100 мбит/с)!

Обратите внимание, что локальная скорость может быть достинута лишь у абонентов интернет-провайдеров Ивановской области. Если вы не являетесь жителем Ивановской области (не подключены к местным стационарным интернет-провайдерам), скорость скачивания с ресурса у вас будет обычной, согласно вашему тарифному плану. Если же вы хотите использовать весь спектр возможностей ресурса - регистрация является обязательной, ведь это так просто!

 
▲ Наверх