Загрузка...
Ошибка

(Thrash Metal) Suicidal Angels - "Division of Blood" (Bonus DVD) "Conquering Europe" (Bonus DVD) [2016, Thrash Metal, DVD5]

Ответить на тему

Kelerva

0  
Suicidal Angels -"Division of Blood" (Bonus DVD) "Conquering Europe"
-Исполнитель: Suicidal Angels
Наименование: "Division of Blood" (Bonus DVD) "Conquering Europe"
Год выпуска: 2016
Страна: Greece (Athens, Attica)
Выступление: Essen, Germany on February, 14, 2015
Жанр: Thrash Metal
Продолжительность: 01:16:38
Перевод: Отсутствует
Релизер (Источник): meloman67 (rutracker.org)-Режиссер / лейбл: NoiseArt Records-Треклист:
01. Intro
02. Divide and conquer
03. Bloodbath
04. Tour Documentary Part 1
05. Apokathilosis
06. Reborn in violence
07. Tour Documentary Part 2
08. Seed of evil
09. Morbid intention to kill
10. Tour Documentary Part 3
11. Beggar of scorn
12. Bleeding Holocaust
13. Tour Documentary Part 4
14. Moshing crew
15. Tour Documentary Part 5

Тех. данные

Качество: DVD5
Формат: DVD Video
Видео кодек: MPEG2
Аудио кодек: AC3
Видео: PAL 16:9 (720x576) 4875 Кбит/сек (7000 Кбит/сек): 25,000 кадров/сек
Аудио: AC3, 192 Кбит/сек: 2 канала: 48,0 КГц
Cубтитры: Английский

Band

Nick Melissourgos - Vocals, Guitars
Aggelos Lelikakis -Bass
Chris Tsitsis - Guitars
Orpheas Tzortzopoulos - Drums

Mediainfo

Общее
Полное имя : D:\Фильмы\Suicidal Angels - Division Of Blood (Bonus DVD) (2016)\VIDEO_TS\VTS_01_2.VOB
Формат : MPEG-PS
Размер файла : 1024 Мбайт
Продолжительность : 27 м.
Режим общего битрейта : Переменный
Общий поток : 5170 Кбит/сек
Видео
Идентификатор : 224 (0xE0)
Формат : MPEG Video
Версия формата : Version 2
Профиль формата : [email protected]
Параметр BVOP формата : Да
Параметр матрицы формата : По умолчанию
Параметр GOP формата : M=3, N=12
Продолжительность : 27 м.
Вид битрейта : Переменный
Битрейт : 4875 Кбит/сек
Максимальный битрейт : 7000 Кбит/сек
Ширина : 720 пикселей
Высота : 576 пикселей
Соотношение сторон : 16:9
Частота кадров : 25,000 кадров/сек
Стандарт вещания : PAL
Цветовое пространство : YUV
Субдискретизация насыщенности : 4:2:0
Битовая глубина : 8 бит
Тип развёртки : Прогрессивная
Метод сжатия : С потерями
Бит/(Пиксели*Кадры) : 0.470
Временной код первого кадра : 00:26:30:18
Оригинал временного кода : Group of pictures header
GOP, открыто/закрыто : Открыто
Размер потока : 965 Мбайт (94%)
Аудио
Идентификатор : 189 (0xBD)-128 (0x80)
Формат : AC-3
Формат/Информация : Audio Coding 3
Расширение режима : CM (complete main)
Параметр Endianness формата : Big
Режим смешивания : DVD-Video
Продолжительность : 27 м.
Вид битрейта : Постоянный
Битрейт : 192 Кбит/сек
Каналы : 2 канала
Расположение каналов : Front: L R
Частота : 48,0 КГц
Частота кадров : 31,250 кадров/сек (1536 spf)
Метод сжатия : С потерями
Задержка видео : -592 мс.
Размер потока : 38,0 Мбайт (4%)
Меню

Меню


Скриншоты




Прошу обратить внимание на то, что весь материал, представленный выше, предназначен исключительно для ознакомления!
Приобретайте, легальные диски, которые станут достойным украшением вашей коллекции!
Скачать раздачу

Просто зарегистрируйтесь и качайте на максимальной скорости (до 100 мбит/с)!

Обратите внимание, что локальная скорость может быть достинута лишь у абонентов интернет-провайдеров Ивановской области. Если вы не являетесь жителем Ивановской области (не подключены к местным стационарным интернет-провайдерам), скорость скачивания с ресурса у вас будет обычной, согласно вашему тарифному плану. Если же вы хотите использовать весь спектр возможностей ресурса - регистрация является обязательной, ведь это так просто!

 
▲ Наверх