Загрузка...
Ошибка

(Progressive Rock / Psychedelic Rock) Pink Floyd - Delicate Sound Of Thunder [1988 г., 2xDVD5]

Ответить на тему

veselric

0  
Pink Floyd - Delicate Sound Of Thunder-Исполнитель: Pink Floyd
Название: Delicate Sound Of Thunder
Год выпуска: 1988
Страна: Великобритания
Жанр: Progressive Rock, Psychedelic Rock
Продолжительность: 00:55:36 (DVD1) + 00:45:49 (DVD2)
Перевод: Отсутствует-Режисcёр: Wayne Isham
Издатель: A Picture Music International-Описание: Delicate Sound of Thunder (в пер. с англ. — Нежный раскат грома) — двойной концертный альбом английской рок-группы Pink Floyd, записанный во время пяти концертов в августе 1988 года на стадионе Nassau Coliseum (США, Нью-Йорк, Лонг-Айленд). В сентябре на студии Эбби Роуд было произведено сведение, а релиз был осуществлён 22 ноября лейблами EMI Records в Великобритании и Columbia Records в Соединённых Штатах. В ноябре 1987 года участники группы уже пытались записать концертные фильм и альбом во время выступления на Omni Coliseum (США, Джорджия, Атланта), но получившийся в итоге результат оказался неудовлетворительным. Записи получились довольно неудачными, поэтому их решили не издавать отдельным диском, а лишь включить некоторые из треков бонусами в синглы к альбому A Momentary Lapse of Reason. После этого группа предприняла вторую попытку создания концертного альбома и устроила с этой целью пять ночных концертов на стадионе Nassau Coliseum, по окончании которых музыканты вернулись в Англию и на студии Эбби Роуд собрали получившийся материал в отдельную пластинку Delicate Sound of Thunder.
Delicate Sound of Thunder стал первым рок-альбомом, прозвучавшим в космосе, так как советские космонавты взяли его на Союз ТМ-7. Члены Pink Floyd присутствовали при запуске корабля. К тому же Delicate Sound of Thunder был единственным альбомом Pink Floyd, выпущенным фирмой «Мелодия» в СССР официально (на виниле).

Видео версия концерта со значительными перестановками в треках была выпущена в июле 1989 г. на VHS, а данный DVD - в 2002.
Состав:
Дэвид Гилмор: гитара, вокал
Ник Мэйсон: ударные
Рик Райт: клавишные, вокал
Jon Carin: клавишные, вокал
Tim Renwick: гитара, вокал
Guy Pratt: бас, вокал
Gary Wallis: ударные
Scott Page: саксофон
Margaret Taylor, Rachel Fury, Durga Mc Broom: бэк-вокал
Трэклист:
DVD1
  • Shine On Your Crazy Diamond (intro)
  • Sign Of Life
  • Learning To Fly
  • Sorrow
  • The Dogs Of War
  • On The Turning Away
  • One Of These Days
  • Time
  • On The Run
  • The Great Gig In The Sky
DVD2
  • Wish You Were Here
  • Us And Them
  • Money
  • Comfortably Numb
  • One Slip
  • Run Like Hell
  • Shine On (Reprise)
Качество: 2xDVD5
Формат: DVD Video
Видео кодек: MPEG2
Аудио кодек: AC3
Видео: NTCS (4:3) 8047 Кбит/сек: (9586 Кбит/сек) 704 x 480 (1.304) at 29.970 fps
Аудио: AC3, 256 Кбит/сек: 2 канала(ов), 48,0 КГц English
Видео: NTCS (4:3) 9062 Кбит/сек: (9586 Кбит/сек) 704 x 480 (1.304) at 29.970 fps
Аудио: AC3, 256 Кбит/сек: 2 канала(ов), 48,0 КГц English
Субтитры: нет

Информация MediaInfo

Общее
Полное имя : F:\Фильмы\Pink_Floyd_Delicate_Sound_Of_Thunder_[torrents.ru]\DVD2\VIDEO_TS\VTS_01_2.VOB
Формат : MPEG-PS
Размер файла : 1024 Мбайт
Продолжительность : 15 м.
Общий поток : 9508 Кбит/сек
Видео
Идентификатор : 224 (0xE0)
Формат : MPEG Video
Версия формата : Version 2
Профиль формата : [email protected]
Параметр BVOP формата : Да
Параметр матрицы формата : По умолчанию
Параметры GOP формата : M=3, N=15
Продолжительность : 15 м.
Вид битрейта : Переменный
Битрейт : 9062 Кбит/сек
Номинальный битрейт : 9586 Кбит/сек
Ширина : 704 пикс.
Высота : 480 пикс.
Соотношение сторон : 4:3
Частота кадров : 29,970 кадр/сек
Стандарт вещания : NTSC
Цветовое пространство : YUV
Подвыборка цветности : 4:2:0
Битовая глубина : 8 бит
Тип развёртки : Чересстрочная
Порядок развёртки : Верхнее поле первое
Метод сжатия : С потерями
Бит/(Пиксели*Кадры) : 0.895
Размер потока : 976 Мбайт (95%)
Аудио
Идентификатор : 189 (0xBD)-128 (0x80)
Формат : AC-3
Формат/Информация : Audio Coding 3
Расширение режима : CM (complete main)
Режим смешивания : DVD-Video
Продолжительность : 15 м.
Вид битрейта : Постоянный
Битрейт : 256 Кбит/сек
Канал(ы) : 2 канала(ов)
Расположение каналов : Front: L R
Частота : 48,0 КГц
Битовая глубина : 16 бит
Метод сжатия : С потерями
Задержка видео : -426 мс.
Размер потока : 27,6 Мбайт (3%)
Текст
Идентификатор : 224 (0xE0)-DVD-2
Формат : EIA-608
Режим смешивания : DVD-Video
Режим смешивания, доп. информаци : Muxed in Video #1
Размер потока : 0,00 байт (0%)
Меню

Скриншоты
















Скачать раздачу

Просто зарегистрируйтесь и качайте на максимальной скорости (до 100 мбит/с)!

Обратите внимание, что локальная скорость может быть достинута лишь у абонентов интернет-провайдеров Ивановской области. Если вы не являетесь жителем Ивановской области (не подключены к местным стационарным интернет-провайдерам), скорость скачивания с ресурса у вас будет обычной, согласно вашему тарифному плану. Если же вы хотите использовать весь спектр возможностей ресурса - регистрация является обязательной, ведь это так просто!

 
▲ Наверх