Загрузка...
Ошибка

(Horror-Punk Rock, Folk Rock, Аrt Rock) Король и Шут - На Краю (Live) [2014, DVD5]

Ответить на тему

Kelerva

+4  
Исполнитель: Король и Шут (КиШ)
Наименование: На краю
Год выпуска: 2014
Страна: Россия (Санкт-Петербург)
Жанр: Horror-Punk Rock, Folk Rock, Арт Rock
Продолжительность: 01:22:51
Перевод: Не требуется
Релизер (Источник): (rutracker.org) Народ

Описание: «На краю...» - последний концертный DVD российской панк-рок-группы ''Король и Шут", фильм-концерт. Записан 2 февраля 2013 года во Дворце спорта «Юбилейный» в Санкт-Петербурге на последнем сольном выступлении группы с Михаилом Горшенёвым в родном городе. Единственный релиз группы «Король и Шут», выпущенный с помощью краудфандинга. Для выхода в свет DVD поклонники коллектива собрали сумму, в три раза превысившую заявленную на портале Planeta.ru, на котором и осуществлялся сбор средств. Премьерный показ фильм-концерта состоялся 9 февраля 2014 года в клубе «Космонавт» в Санкт-Петербурге при участии музыкантов группы.

Треклист:

01. Исповедь вампира
02. Король и шут
03. Продавец кошмаров
04. Фокусник
05. Дурак и молния
06. Смертельный приговор
07. Священник больше ничего не скажет
08. Паника в селе
09. Похороны панка
10. Отражение
11. Хардкор по-русски
12. Смерть на балу
13. Камнем по голове
14. Тринадцатая рана
15. Шар голубой
16. Воспоминания о былой любви
17. Медведь (акустика)
18. Северный флот (акустика)
19. Ели мясо мужики
20. Марионетки
21. Счастье
22. Танец злобного гения
23. Мертвый анархист
24. Лесник
25. На краю

Состав:

Михаил (Горшок) Горшенев - вечный вокал - ушел в тот момент, когда не успел надоесть
Яков (Яша) Цвиркунов - гитара (виртуоз и изобретатель)
Александр (Ренегат) Леонтьев - гитара, бэк-вокал, электро-гитара (Северный Флот)
Сергей (Захар, он же Лысый) Захаров - бас гитара (был уволен через несколько дней после известия о смерти Михаила)
Павел Сажинов - клавишник (композитор, аранжировщик, звукорежиссёр, философ, буддист)
Александр (Поручик) Щиголев - заслуженный барабанщик (один из основателей)

Тех. данные:

Качество: DVD5
Формат: DVD video
Видео кодек: MPEG2
Аудио кодек: AC3
Видео: MPEG Video 720:576 6140 Kbps 25.00 fps
Аудио: AC3 192 kbps 48000 kHz 2 ch

О релизе:

Новость о том, что грядущий концерт «Короля и Шута» в Санкт-Петербурге будет официально снят на видео, появилась на официальных интернет-ресурсах группы 1 февраля, за день до самого выступления. По словам же самих музыкантов, группа долго и серьёзно готовилась к съёмке этого концерта. В качестве режиссёра выступил Игорь «Панкер» Гудков, который уже снимал концерты «Праздник скоморох» и «Ели мясо мужики». Выступление снималось на 7 профессиональных видеокамер, звук записывался с помощью многоканальной студии. На разогреве у «Короля и Шута» играла панк-группа Александра Ильина «План Ломоносова». Программа, с которой выступала группа «Король и Шут» называлась «На краю», по одноимённой песне из зонг-оперы TODD. Концерт продолжался более двух часов, группа исполнила 34 песни. Специальным гостем выступил Илья Чёрт из группы «Пилот», исполнивший 2 песни из альбома «На краю», в студийной записи которых он участвовал. Илья появился на сцене в образе судьи: на нём были мантия и парик, а руках он держал книгу. Для издания фильма-концерта Михаил Горшенёв отобрал 24 песни из записанного материала. Незадолго до своей кончины он успел доработать их в студии и свести. Однако никакой официальной информации о времени выпуска концертного альбома с момента выступления не было. Только 9 августа 2013 года, уже после кончины Михаила Горшенёва, Яков Цвиркунов написал в своём твиттере, что музыканты решили плотно заняться выпуском этого концерта. 3 сентября на портале Planeta.ru участниками группы был запущен краудфандинговый проект по сбору средств на выпуск фильма-концерта. Заявленная сумма составила 510 тысяч рублей, однако собранная поклонникам сумма почти в 3 раза превысила изначальную и составила 1 446 350 рублей. Проект по сбору средств был завершён 16 ноября. Изначально планировалось, что премьерный показ фильма-концерта пройдёт в конце ноября или начале декабря в Санкт-Петербурге. Однако в связи с плотным гастрольным графиком группы в туре «Прощание», показ был перенесён сначала на 18, потом на 29 декабря. Затем была официально объявлена точная дата — премьерный показ фильма пройдёт 9 февраля в питерском клубе «Космонавт». На этом событии будут присутствовать музыканты группы «Король и Шут», а первыми зрителями станут акционеры проекта. Специальными гостями этого события станут бывшие участники группы.

MediaInfo:

General
Complete name : D:\Фильмы\Король и Шут - На краю - Live [2014]\VIDEO_TS\VTS_01_3.VOB
Format : MPEG-PS
File size : 1 000 MiB
Duration : 21mn 37s
Overall bit rate mode : Variable
Overall bit rate : 6 466 Kbps
Video
ID : 224 (0xE0)
Format : MPEG Video
Format version : Version 2
Format profile : [email protected]
Format settings, BVOP : Yes
Format settings, Matrix : Default
Format settings, GOP : M=3, N=12
Duration : 21mn 37s
Bit rate mode : Variable
Bit rate : 6 145 Kbps
Maximum bit rate : 7 000 Kbps
Width : 720 pixels
Height : 576 pixels
Display aspect ratio : 16:9
Frame rate : 25.000 fps
Standard : PAL
Color space : YUV
Chroma subsampling : 4:2:0
Bit depth : 8 bits
Scan type : Interlaced
Scan order : Top Field First
Compression mode : Lossy
Bits/(Pixel*Frame) : 0.593
Time code of first frame : 00:42:09:01
Time code source : Group of pictures header
Stream size : 950 MiB (95%)
Audio
ID : 189 (0xBD)-128 (0x80)
Format : AC-3
Format/Info : Audio Coding 3
Mode extension : CM (complete main)
Format settings, Endianness : Big
Muxing mode : DVD-Video
Duration : 21mn 37s
Bit rate mode : Constant
Bit rate : 192 Kbps
Channel count : 2 channels
Channel positions : Front: L R
Sampling rate : 48.0 KHz
Bit depth : 16 bits
Compression mode : Lossy
Delay relative to video : -192ms
Stream size : 29.7 MiB (3%)

Скриншоты:




http://rutracker.org/forum/viewtopic.php?t=4672439
Прошу обратить внимание на то, что весь материал, представленный выше, предназначен исключительно для ознакомления!
Приобретайте, легальные диски, которые станут достойным украшением вашей коллекции!
Скачать раздачу

Просто зарегистрируйтесь и качайте на максимальной скорости (до 100 мбит/с)!

Обратите внимание, что локальная скорость может быть достинута лишь у абонентов интернет-провайдеров Ивановской области. Если вы не являетесь жителем Ивановской области (не подключены к местным стационарным интернет-провайдерам), скорость скачивания с ресурса у вас будет обычной, согласно вашему тарифному плану. Если же вы хотите использовать весь спектр возможностей ресурса - регистрация является обязательной, ведь это так просто!

 

Алексей 712

0  
Спасибочки!!!
 

Жентос

0  
спс!!!!!!!
 
▲ Наверх