Загрузка...
Ошибка

(Pop) Crazy Frog (6 Vdeo Clips) [2005-2007 г., (Апскейл) TVRip, SATRip]

Ответить на тему

IvAN

0  
Crazy Frog
-Исполнитель: Crazy Frog
Наименование: 6 Vdeo Clips
Год выпуска: 2005-2007
Страна: Россия
Жанр: Pop
Продолжительность: указ. ниже
Перевод: Не требуется-Описание: Безумный лягушонок Crazy Frog стал межнациональной знаменитостью. Его изображения заполонили Интернет и обложки модных журналов и примелькались не меньше, чем фотографии Бритни Спирс.-Треклист:
01. Crazi Frog
02. Axel F 1000
03. In The House
04. Last Christmas
05. Popcorn.
06. We Are The Champions-

Тех. данные

Качество: TVRip, SATRip (Апскейл)
Формат: MPG, AVI
Видео кодек: MPEG-4 Visual (microsoft), MPEG-4 Visual (XviD), MPEG1, Xvid
Аудио кодек: MPEG Audio (MP3), MPEG1
Видео: MPEG Video, 2007 Кбит/сек: 720 x 576 (1.333) at 25.000 fps /2 мин 40 сек/
Аудио: MPEG Audio, 256 Кбит/сек: 2 канала, 44,1 КГц
Видео: MPEG-4 Visual, NTSC 1161 Кбит/сек: 720 x 480 (1.500) at 29.970 fps /2 мин 51 сек/
Аудио: MPEG Audio, 224 Кбит/сек: 2 канала, 48,0 КГц
Видео: MPEG-4 Visual, 4005 Кбит/сек: 1280 x 720 (1.778) at 30.000 fps /3 мин 5 сек/
Аудио: MPEG Audio, 224 Кбит/сек: 2 канала, 44,1 КГц
Видео: MPEG-4 Visual, 3945 Кбит/сек: 1280 x 720 (1.778) at 30.000 fps /3 мин 8 сек/
Аудио: MPEG Audio, 224 Кбит/сек: 2 канала, 44,1 КГц
Видео: MPEG Video, PAL (4:3) 1150 Кбит/сек: 352 x 288 (1.304) at 25.000 fps /30 сек/
Аудио: MPEG Audio, 224 Кбит/сек: 2 канала, 44,1 КГц
Видео: xvid, 2188 Кбит/сек: 512 x 384 (1.333) at 25.000 fps /3 мин 6 сек/
Аудио: MPEG Audio, 256 Кбит/сек: 2 канала, 44,1 КГц

Скриншоты

   
   

Mediainfo

Общее
Полное имя : J:\Фильмы\Crazy Frog\Crazi Frog.mpg
Формат : MPEG-PS
Размер файла : 44,1 Мбайт
Продолжительность : 2 м. 40 с.
Общий поток : 2309 Кбит/сек
Видео
Идентификатор : 224 (0xE0)
Формат : MPEG Video
Версия формата : Version 2
Профиль формата : [email protected]
Параметр BVOP формата : Да
Параметр матрицы формата : По умолчанию
Параметр GOP формата : M=3, N=18
Продолжительность : 2 м. 40 с.
Вид битрейта : Переменный
Битрейт : 2007 Кбит/сек
Максимальный битрейт : 8200 Кбит/сек
Ширина : 720 пикселей
Высота : 576 пикселей
Соотношение сторон : 4:3
Частота кадров : 25,000 кадров/сек
Стандарт вещания : PAL
Цветовое пространство : YUV
Субдискретизация насыщенности : 4:2:0
Битовая глубина : 8 бит
Тип развёртки : Чересстрочная
Порядок развёртки : Верхнее поле первое
Метод сжатия : С потерями
Бит/(Пиксели*Кадры) : 0.194
Размер потока : 38,4 Мбайт (87%)
Аудио
Идентификатор : 192 (0xC0)
Формат : MPEG Audio
Версия формата : Version 1
Профиль формата : Layer 2
Продолжительность : 2 м. 39 с.
Вид битрейта : Постоянный
Битрейт : 256 Кбит/сек
Каналы : 2 канала
Частота : 44,1 КГц
Метод сжатия : С потерями
Задержка видео : 19 мс.
Размер потока : 4,88 Мбайт (11%)
Общее
Полное имя : J:\Фильмы\Crazy Frog\Crazy Frog - Axel F_1000.avi
Формат : AVI
Формат/Информация : Audio Video Interleave
Размер файла : 28,6 Мбайт
Продолжительность : 2 м. 51 с.
Общий поток : 1397 Кбит/сек
Библиотека кодирования : VirtualDub build 18160/release
Видео
Идентификатор : 0
Формат : MPEG-4 Visual
Идентификатор кодека : MP42
Идентификатор кодека/Информация : Microsoft MPEG-4 v2 (pre-standard)
Идентификатор кодека/Подсказка : Microsoft
Продолжительность : 2 м. 51 с.
Битрейт : 1161 Кбит/сек
Ширина : 720 пикселей
Высота : 480 пикселей
Соотношение сторон : 3:2
Частота кадров : 29,970 кадров/сек
Стандарт вещания : NTSC
Метод сжатия : С потерями
Бит/(Пиксели*Кадры) : 0.112
Размер потока : 23,8 Мбайт (83%)
Аудио
Идентификатор : 1
Формат : MPEG Audio
Версия формата : Version 1
Профиль формата : Layer 3
Идентификатор кодека : 55
Идентификатор кодека/Подсказка : MP3
Продолжительность : 2 м. 51 с.
Вид битрейта : Постоянный
Битрейт : 224 Кбит/сек
Каналы : 2 канала
Частота : 48,0 КГц
Метод сжатия : С потерями
Размер потока : 4,59 Мбайт (16%)
Выравнивание : Разделение по промежуткам
Продолжительность промежутка : 33 мс. (1,00 видеокадр)
Время предзагрузки промежутка : 500 мс.
Общее
Полное имя : J:\Фильмы\Crazy Frog\Crazy Frog - In The House.AVI
Формат : AVI
Формат/Информация : Audio Video Interleave
Размер файла : 93,9 Мбайт
Продолжительность : 3 м. 5 с.
Общий поток : 4241 Кбит/сек
Видео
Идентификатор : 0
Формат : MPEG-4 Visual
Идентификатор кодека : XVID
Идентификатор кодека/Подсказка : XviD
Продолжительность : 3 м. 5 с.
Битрейт : 4005 Кбит/сек
Ширина : 1280 пикселей
Высота : 720 пикселей
Соотношение сторон : 16:9
Частота кадров : 30,000 кадров/сек
Цветовое пространство : YUV
Субдискретизация насыщенности : 4:2:0
Метод сжатия : С потерями
Бит/(Пиксели*Кадры) : 0.145
Размер потока : 88,7 Мбайт (94%)
Аудио
Идентификатор : 1
Формат : MPEG Audio
Идентификатор кодека : 55
Идентификатор кодека/Подсказка : MP3
Продолжительность : 3 м. 5 с.
Битрейт : 224 Кбит/сек
Каналы : 2 канала
Частота : 44,1 КГц
Метод сжатия : С потерями
Размер потока : 4,96 Мбайт (5%)
Выравнивание : Соединение по промежуткам
Продолжительность промежутка : 999 мс. (29,96 видеокадров)
Общее
Полное имя : J:\Фильмы\Crazy Frog\Crazy Frog - Last Christmas.AVI
Формат : AVI
Формат/Информация : Audio Video Interleave
Размер файла : 94,2 Мбайт
Продолжительность : 3 м. 8 с.
Общий поток : 4181 Кбит/сек
Видео
Идентификатор : 0
Формат : MPEG-4 Visual
Идентификатор кодека : XVID
Идентификатор кодека/Подсказка : XviD
Продолжительность : 3 м. 8 с.
Битрейт : 3945 Кбит/сек
Ширина : 1280 пикселей
Высота : 720 пикселей
Соотношение сторон : 16:9
Частота кадров : 30,000 кадров/сек
Цветовое пространство : YUV
Субдискретизация насыщенности : 4:2:0
Метод сжатия : С потерями
Бит/(Пиксели*Кадры) : 0.143
Размер потока : 88,8 Мбайт (94%)
Аудио
Идентификатор : 1
Формат : MPEG Audio
Идентификатор кодека : 55
Идентификатор кодека/Подсказка : MP3
Продолжительность : 3 м. 8 с.
Битрейт : 224 Кбит/сек
Каналы : 2 канала
Частота : 44,1 КГц
Метод сжатия : С потерями
Размер потока : 5,05 Мбайт (5%)
Выравнивание : Соединение по промежуткам
Продолжительность промежутка : 999 мс. (29,98 видеокадров)
Общее
Полное имя : J:\Фильмы\Crazy Frog\Crazy Frog - Popcorn..avi
Формат : MPEG-PS
Размер файла : 5,02 Мбайт
Продолжительность : 30 с.
Общий поток : 1404 Кбит/сек
Библиотека кодирования : encoded by TMPGEnc (ver. 2.56.39.143)
Видео
Идентификатор : 224 (0xE0)
Формат : MPEG Video
Версия формата : Version 1
Параметр BVOP формата : Да
Параметр матрицы формата : Выборочная
Продолжительность : 30 с.
Битрейт : 1150 Кбит/сек
Ширина : 352 пикселя
Высота : 288 пикселей
Соотношение сторон : 4:3
Частота кадров : 25,000 кадров/сек
Стандарт вещания : PAL
Цветовое пространство : YUV
Битовая глубина : 8 бит
Тип развёртки : Прогрессивная
Метод сжатия : С потерями
Бит/(Пиксели*Кадры) : 0.454
Размер потока : 4,12 Мбайт (82%)
Библиотека кодирования : TMPGEnc 2.56.39.143
Аудио
Идентификатор : 192 (0xC0)
Формат : MPEG Audio
Версия формата : Version 1
Профиль формата : Layer 2
Продолжительность : 30 с.
Вид битрейта : Постоянный
Битрейт : 224 Кбит/сек
Каналы : 2 канала
Частота : 44,1 КГц
Метод сжатия : С потерями
Размер потока : 821 Кбайт (16%)
Общее
Полное имя : J:\Фильмы\Crazy Frog\Crazy Frog - We are the champions.avi
Формат : AVI
Формат/Информация : Audio Video Interleave
Размер файла : 54,6 Мбайт
Продолжительность : 3 м. 6 с.
Общий поток : 2457 Кбит/сек
Программа кодирования : Lavf50.6.0
Видео
Идентификатор : 0
Формат : xvid
Идентификатор кодека : xvid
Продолжительность : 3 м. 6 с.
Битрейт : 2188 Кбит/сек
Ширина : 512 пикселей
Высота : 384 пикселя
Соотношение сторон : 4:3
Частота кадров : 25,000 кадров/сек
Бит/(Пиксели*Кадры) : 0.445
Размер потока : 48,7 Мбайт (89%)
Аудио
Идентификатор : 1
Формат : MPEG Audio
Версия формата : Version 1
Профиль формата : Layer 3
Режим : Joint stereo
Расширение режима : MS Stereo
Идентификатор кодека : 55
Идентификатор кодека/Подсказка : MP3
Продолжительность : 3 м. 6 с.
Вид битрейта : Постоянный
Битрейт : 256 Кбит/сек
Каналы : 2 канала
Частота : 44,1 КГц
Метод сжатия : С потерями
Размер потока : 5,68 Мбайт (10%)
Выравнивание : Соединение по промежуткам
Продолжительность промежутка : 26 мс. (0,65 видеокадр)
Библиотека кодирования : LAME3.98 (alpha)ЄЄЄЄ
Апскейл
Скачать раздачу

Просто зарегистрируйтесь и качайте на максимальной скорости (до 100 мбит/с)!

Обратите внимание, что локальная скорость может быть достинута лишь у абонентов интернет-провайдеров Ивановской области. Если вы не являетесь жителем Ивановской области (не подключены к местным стационарным интернет-провайдерам), скорость скачивания с ресурса у вас будет обычной, согласно вашему тарифному плану. Если же вы хотите использовать весь спектр возможностей ресурса - регистрация является обязательной, ведь это так просто!

 

IvAN

0  
Разместил сюда, а не в музыку потому, что дети очень любят музыкальные мультфильмы.
 

sergey76

0  
СПАСИБО, малец вытанцовывает под них
 
▲ Наверх