Загрузка...
Ошибка

Рапунцель: Запутанная история 3D / Tangled 3D (Нaтан Грeнo, Бaйpон Хoвaрд / Nаthаn Grеno, Bуron Hоwаrd) [1080p] [2010, комедия, мюзикл, семейный, мультфильм, BDrip] Anaglyph / Анаглиф

Ответить на тему

xala

0  
Рапунцель: Запутанная история 3D / Tangled 3D- Год выпуска: 2010
Страна: США
Студия: Walt Disney Pictures
Жанр: Мультфильм, Мюзикл, Фэнтези, Комедия
Продолжительность: 01:40:14
Перевод: Профессиональный (дублированный)
Русские субтитры: нет-Режиссер : Нaтан Грeнo, Бaйpон Хoвaрд / Nаthаn Grеno, Bуron Hоwаrd-Роли озвучивали: Мэнди Мур, Захари Левай, Донна Мерфи, Рон Перлман, М. К. Гейни, Джефри Тэмбор, Брэд Гэррет, Пол Ф. Томпкинс, Ричард Кил, Делани Роуз Стейн-Описание: Обаятельный разбойник Флинн путешествует по жизни с легкостью, лишь потому, что он красив, болтлив и удачлив. И казалось, фортуна всегда на его стороне, пока однажды он не выбирает высокую башню в густой чаще леса в качестве «спокойного» убежища. Флинн оказывается связанным по рукам и ногам юной красавицей по имени Рапунцель. Если вы думаете, что самое интересное в ней — это 21 метр волшебных золотистых волос, то вы заблуждаетесь! Запертая в башне и отчаянно ищущая приключений, Рапунцель решает использовать Флинна в качестве билета в большой мир. Сначала комичное похищение, затем невинный шантаж — и вот наши герои на воле. Вместе с главными героями в авантюрное путешествие отправятся бравый конь-ищейка Максимус, ручной хамелеон и шайка сумасбродных разбойников.-Качество: BDrip
Контейнер: MKV
Формат 3D: Anaglyph / Анаглиф red-cyan "Дюбуа".
Видео кодек: x264
Аудио кодек: AC3
Видео: AVC / 1920x1080p / 16:9 / 23.976 fps / 7 121 Kbps
Аудио: Russian / AC-3 / 6 channels / 48.0 KHz / 640 Kbps Профессиональный (дублированный)
Субтитры: нет

MediaInfo

General
Format : Matroska
File size : 5.55 GiB
Duration : 1h 40mn
Overall bit rate : 7 918 Kbps
Encoded date : UTC 2011-06-09 14:38:16
Writing application : mkvmerge v4.4.0 ('Die Wiederkehr') сборка от Oct 31 2010 21:52:48
Writing library : libebml v1.0.0 + libmatroska v1.0.0
Video
ID : 1
Format : AVC
Format/Info : Advanced Video Codec
Format profile : [email protected]
Format settings, CABAC : Yes
Format settings, ReFrames : 4 frames
Codec ID : V_MPEG4/ISO/AVC
Duration : 1h 40mn
Bit rate : 7 121 Kbps
Width : 1 920 pixels
Height : 1 080 pixels
Display aspect ratio : 16:9
Frame rate : 23.976 fps
Color space : YUV
Chroma subsampling : 4:2:0
Bit depth : 8 bits
Scan type : Progressive
Bits/(Pixel*Frame) : 0.143
Stream size : 4.99 GiB (90%)
Title : Anaglyph Dubois
Writing library : x264 core 115 r1995 c1e60b9
Encoding settings : cabac=1 / ref=4 / deblock=1:-2:-2 / analyse=0x3:0x113 / me=umh / subme=7 / psy=1 /
psy_rd=1.00:0.15 / mixed_ref=1 / me_range=16 / chroma_me=1 / trellis=2 / 8x8dct=1 / cqm=0 / deadzone=21,11 / fast_pskip=1 /
chroma_qp_offset=-3 / threads=6 / sliced_threads=0 / nr=0 / decimate=1 / interlaced=0 / bluray_compat=0 / constrained_intra=0 /
bframes=6 / b_pyramid=0 / b_adapt=2 / b_bias=0 / direct=3 / weightb=1 / open_gop=0 / weightp=2 / keyint=250 / keyint_min=23 /
scenecut=40 / intra_refresh=0 / rc_lookahead=40 / rc=crf / mbtree=1 / crf=18.0 / qcomp=0.60 / qpmin=10 / qpmax=69 / qpstep=4 /
ip_ratio=1.40 / aq=1:1.00
Language : Russian
Audio
ID : 2
Format : AC-3
Format/Info : Audio Coding 3
Mode extension : CM (complete main)
Codec ID : A_AC3
Duration : 1h 40mn
Bit rate mode : Constant
Bit rate : 640 Kbps
Channel(s) : 6 channels
Channel positions : Front: L C R, Side: L R, LFE
Sampling rate : 48.0 KHz
Bit depth : 16 bits
Compression mode : Lossy
Stream size : 459 MiB (8%)
Language : Russian
Menu
00:00:00.000 : :00:00:00.000
00:08:21.418 : :00:08:21.418
00:15:43.192 : :00:15:43.192
00:24:41.689 : :00:24:41.689
00:34:43.290 : :00:34:43.290
00:42:32.967 : :00:42:32.967
00:50:28.150 : :00:50:28.150
00:59:24.895 : :00:59:24.895
01:10:38.860 : :01:10:38.860
01:19:27.262 : :01:19:27.262
01:25:26.580 : :01:25:26.580
01:31:25.689 : :01:31:25.689

Скриншоты (Смотреть в очках Red/Cyan)







Скачать раздачу

Просто зарегистрируйтесь и качайте на максимальной скорости (до 100 мбит/с)!

Обратите внимание, что локальная скорость может быть достинута лишь у абонентов интернет-провайдеров Ивановской области. Если вы не являетесь жителем Ивановской области (не подключены к местным стационарным интернет-провайдерам), скорость скачивания с ресурса у вас будет обычной, согласно вашему тарифному плану. Если же вы хотите использовать весь спектр возможностей ресурса - регистрация является обязательной, ведь это так просто!

 

Yarick

0  
Давайте не будем пугать народ словом "Дюбуа".
 

xala

0  
Yarick
Можно и убрать!!!
 

Student-AK37

0  
Убирать ненужно. это бренд.
 

Yarick

0  
Бренд не бренд, а анаглиф и в африке анаглиф Very Happy
 

Student-AK37

0  
Бренд не бренд, а анаглиф и в африке анаглиф Very Happy
Как желаете. Я анаглиф не смотрю.
 

shurik

0  
спасибо
 
▲ Наверх