Загрузка...
Ошибка

(Pop) Мираж - Звёздная коллекция [2000, FLAC, Lossless]

Ответить на тему

Riga

0  
Мираж - Звёздная коллекция- Год: 2000
Страна-производитель диска: Россия
Жанр: Pop
Издатель (лейбл): J.S.P. Records/группа ДЖЕМ
Номер по каталогу: 010 224 - 2
Продолжительность: 01:13:24
Кодек: FLAC
Битрейт: Lossless
Тип рипа: image+.cue-Трек лист:
01. Звёзды нас ждут [4:57]
02. Музыка нас связала [4:25]
03. Снова вместе [5:35]
04. Наступает ночь [4:20]
05. Где я [4:33]
06. Видео [4:01]
07. Безумный мир [3:48]
08. Солнечное лето [4:26]
09. Я не шучу [3:07]
10. Млечный путь [4:22]
11. Море грёз [4:03]
12. Эта ночь [4:23]
13. Я больше не прошу [3:56]
14. Я снова вижу тебя (remake ) [4:06]
15. Danceremix 2000 [7:05]
16. Волшебный мир [6:10]
-

Отчёт ЕАС:

Код:
Exact Audio Copy V0.99 prebeta 5 from 4. May 2009
Отчёт EAC об извлечении, выполненном 18. сентября 2010, 9:21
Мираж / Звёздная коллекция
Дисковод: HL-DT-STDVD-RAM GH22NS30   Adapter: 3  ID: 0
Режим чтения                 : Достоверность
Использование точного потока : Да
Отключение кэша аудио        : Да
Использование указателей C2  : Нет
Коррекция смещения при чтении                     : 102
Способность читать области Lead-in и Lead-out     : Нет
Заполнение пропущенных сэмплов тишиной            : Да
Удаление блоков с тишиной в начале и конце        : Нет
При вычислениях CRC использовались нулевые сэмплы : Да
Интерфейс                                         : Встроенный Win32-интерфейс для Win NT/2000
Выходной формат : Внутренние WAV-операции
Формат сэмплов  : 44.100 Гц; 16 бит; стерео
TOC извлечённого CD
Трек |   Старт  | Длительность | Начальный сектор | Конечный сектор
    ---------------------------------------------------------------------
       1  |  0:00.23 |    4:57.45   |          23      |      22342
       2  |  4:57.68 |    4:25.02   |       22343      |      42219
       3  |  9:22.70 |    5:35.03   |       42220      |      67347
       4  | 14:57.73 |    4:20.22   |       67348      |      86869
       5  | 19:18.20 |    4:33.10   |       86870      |     107354
       6  | 23:51.30 |    4:01.33   |      107355      |     125462
       7  | 27:52.63 |    3:48.05   |      125463      |     142567
       8  | 31:40.68 |    4:26.70   |      142568      |     162587
       9  | 36:07.63 |    3:07.72   |      162588      |     176684
      10  | 39:15.60 |    4:22.63   |      176685      |     196397
      11  | 43:38.48 |    4:03.72   |      196398      |     214694
      12  | 47:42.45 |    4:23.65   |      214695      |     234484
      13  | 52:06.35 |    3:56.08   |      234485      |     252192
      14  | 56:02.43 |    4:06.67   |      252193      |     270709
      15  | 60:09.35 |    7:05.23   |      270710      |     302607
      16  | 67:14.58 |    6:10.10   |      302608      |     330367
Характеристики диапазона извлечения и сообщения об ошибках
Выбранный диапазон
Имя файла C:\Users\[email protected]\Desktop\Мираж(2000) - Звёздная коллекция[lossless]\Мираж - Звёздная коллекция.wav
Пиковый уровень 100.0 %
     Качество диапазона 100.0 %
     CRC теста 2E731D5C
     CRC копии 2E731D5C
     Копирование... OK
Ошибок не произошло
AccurateRip: сводка
Трек  1  нет в базе данных
Трек  2  нет в базе данных
Трек  3  нет в базе данных
Трек  4  нет в базе данных
Трек  5  нет в базе данных
Трек  6  нет в базе данных
Трек  7  нет в базе данных
Трек  8  нет в базе данных
Трек  9  нет в базе данных
Трек 10  нет в базе данных
Трек 11  нет в базе данных
Трек 12  нет в базе данных
Трек 13  нет в базе данных
Трек 14  нет в базе данных
Трек 15  нет в базе данных
Трек 16  нет в базе данных
Ни одного трека нет в базе AccurateRip
Конец отчёта

скрытый текст

-----------------------
DON'T MODIFY THIS FILE
-----------------------
PERFORMER: auCDtect Task Manager, ver. 1.5.1RC6 build 1.5.1.7
Copyright (c) 2008-2010 y-soft. All rights reserved
http://y-soft.org
ANALYZER: auCDtect: CD records authenticity detector, version 0.8.2
Copyright (c) 2004 Oleg Berngardt. All rights reserved.
Copyright (c) 2004 Alexander Djourik. All rights reserved.
FILE: Мираж - Звёздная коллекция.ape
Size: 484162472 Hash: 4FA6C4A4F449A8AADFA5E77E8661D543 Accuracy: -m0
Conclusion: CDDA 100%
Signature: 5BAD53F2EA43B78FA4B020ADF4BBBB887C192971
Скачать раздачу

Просто зарегистрируйтесь и качайте на максимальной скорости (до 100 мбит/с)!

Обратите внимание, что локальная скорость может быть достинута лишь у абонентов интернет-провайдеров Ивановской области. Если вы не являетесь жителем Ивановской области (не подключены к местным стационарным интернет-провайдерам), скорость скачивания с ресурса у вас будет обычной, согласно вашему тарифному плану. Если же вы хотите использовать весь спектр возможностей ресурса - регистрация является обязательной, ведь это так просто!

 
▲ Наверх