Загрузка...
Ошибка

(Euro Disco) C.C. Catch - 25th Anniversary Box 5CD (1986-1990) [2011, FLAC, Lossless] Klub80 Records Remastered

Ответить на тему

Riga

0  
-C.C. Catch-25th Anniversary Box 5CD (1986-1990)- Год выпуска: 2011
Страна: Deutschland
Лейбл: Klub80 Records
Каталог: 224-228
Официальный сайт: http://www.cccatch.de/
Жанр: Euro Disco
Продолжительность: 05:11:26
Кодек: FLAC
Битрейт: Lossless-Юбилейное коробочное переиздание 5-ти альбомов исполнительницы. Все диски дополнены бонусными треками.
Производителем заявлен 32-х битный ремастеринг.-Каролина Мюллер родилась в Нидерландах. В 1979 году её семья переехала в ФРГ, а с 1980 года Мюллер уже выступала в женской поп-группе Optimal. В 1985 году, после выступления Optimal на музыкальном конкурсе под Гамбургом, немецкий композитор и участник группы Modern Talking Дитер Болен очень заинтересовался её голосом и в тот же день пригласил к себе в студию для прослушивания. Вскоре после этого она подписала с ним контракт, который должен был начать её сольную карьеру. Каролина выбрала себе псевдоним C. C. Catch, где два «С» — инициалы её двух имён. Летом 1985 года, в день рождения Каролины, песня I Can Lose My Heart Tonight была выпущена в качестве её дебютного сингла. Песня стала очень популярна в короткие сроки. Через один год выходит её первый альбом Catch the Catch, на обложке которого изображён её любимый кот…
По своей сути “25th Anniversary Box” не что иное, как подарочное (“фанатское”) переиздание самых популярных альбомов/песен королевы евродиско 80ых.
Каждый диск кроме оригинального альбома в ремастеринге, имеет кучу дополнительных бонусов, частично ранее не издававшихся на CD (синглы, миксы, минусовки)
-

1986 - Catch The Catch


Трек лист:
01. 'Cause You Are Young (Maxi-Version)
02. I Can Lose My Heart Tonight (Maxi-Version)
03. You Shot A Hole In My Soul (Maxi-Version)
04. One Night's Not Enough
05. Strangers By Night (Maxi-Version)
06. Stay (Maxi-Version)
07. Jump In My Car (Maxi-Version)
08. You Can Be My Lucky Star Tonight (Maxi-Version)
Bonus Tracks:
09. ’Cause You Are Young (Instrumental)
10. I Can Lose My Heart Tonight (Instrumental)
11. Strangers By Night (Instrumental)
12. Jump In My Car (Instrumental)
13. 'Cause You Are Young (7'' Version)
14. I Can Lose My Heart Tonight (7'' Version)
15. You Shot A Hole In My Soul (7'' Version)
16. Strangers By Night (7'' Version)
17. Jump In My Car (7'' Version)
18. One Night's Not Enough (12'' Maxi-Version)
Продолжительность: 01:19:36

Отчёт ЕАС:

Код:
Exact Audio Copy V1.0 beta 3 from 29. August 2011
Отчёт EAC об извлечении, выполненном 13. ноября 2011, 0:34
C.C. Catch / Catch The Catch
Дисковод: ASUS    DRW-2014S1T   Adapter: 9  ID: 0
Режим чтения                 : Достоверность
Использование точного потока : Да
Отключение кэша аудио        : Да
Использование указателей C2  : Нет
Коррекция смещения при чтении                     : 6
Способность читать области Lead-in и Lead-out     : Нет
Заполнение пропущенных сэмплов тишиной            : Да
Удаление блоков с тишиной в начале и конце        : Нет
При вычислениях CRC использовались нулевые сэмплы : Да
Интерфейс                                         : Установленный внешний ASPI-интерфейс
Выходной формат : Внутренние WAV-операции
Формат сэмплов  : 44.100 Гц; 16 бит; стерео
TOC извлечённого CD
     Трек |   Старт  | Длительность | Начальный сектор | Конечный сектор
    ---------------------------------------------------------------------
       1  |  0:00.00 |    4:53.23   |           0      |      21997
       2  |  4:53.23 |    5:52.70   |       21998      |      48467
       3  | 10:46.18 |    5:17.14   |       48468      |      72256
       4  | 16:03.32 |    3:22.43   |       72257      |      87449
       5  | 19:26.00 |    5:43.71   |       87450      |     113245
       6  | 25:09.71 |    5:48.68   |      113246      |     139413
       7  | 30:58.64 |    4:34.19   |      139414      |     159982
       8  | 35:33.08 |    5:17.23   |      159983      |     183780
       9  | 40:50.31 |    3:30.36   |      183781      |     199566
      10  | 44:20.67 |    3:50.74   |      199567      |     216890
      11  | 48:11.66 |    3:40.01   |      216891      |     233391
      12  | 51:51.67 |    4:07.69   |      233392      |     251985
      13  | 55:59.61 |    3:30.01   |      251986      |     267736
      14  | 59:29.62 |    3:51.71   |      267737      |     285132
      15  | 63:21.58 |    3:28.46   |      285133      |     300778
      16  | 66:50.29 |    3:39.25   |      300779      |     317228
      17  | 70:29.54 |    3:50.60   |      317229      |     334538
      18  | 74:20.39 |    5:17.35   |      334539      |     358348
Характеристики диапазона извлечения и сообщения об ошибках
Выбранный диапазон
     Имя файла Z:\Temp\C.C. Catch - Catch The Catch.wav
     Пиковый уровень 96.9 %
     Скорость извлечения 10.2 X
     Качество диапазона 100.0 %
     CRC теста ED0435FE
     CRC копии ED0435FE
     Копирование... OK
Ошибок не произошло
AccurateRip: сводка
Трек  1  отсутствует в базе данных
Трек  2  отсутствует в базе данных
Трек  3  отсутствует в базе данных
Трек  4  отсутствует в базе данных
Трек  5  отсутствует в базе данных
Трек  6  отсутствует в базе данных
Трек  7  отсутствует в базе данных
Трек  8  отсутствует в базе данных
Трек  9  отсутствует в базе данных
Трек 10  отсутствует в базе данных
Трек 11  отсутствует в базе данных
Трек 12  отсутствует в базе данных
Трек 13  отсутствует в базе данных
Трек 14  отсутствует в базе данных
Трек 15  отсутствует в базе данных
Трек 16  отсутствует в базе данных
Трек 17  отсутствует в базе данных
Трек 18  отсутствует в базе данных
Ни одного трека нет в базе AccurateRip
Конец отчёта
==== Контрольная сумма отчёта 807573C0C060515830606C8E720A8DF6BB47A7372D139BC7B9CEE028A1C27C52 ====

Отчёт auCDtectTaskManager:

Код:
-----------------------
DON'T MODIFY THIS FILE
-----------------------
PERFORMER: auCDtect Task Manager, ver. 1.5.1RC4 build 1.5.1.5
Copyright (c) 2008-2010 y-soft. All rights reserved
http://y-soft.org
ANALYZER: auCDtect: CD records authenticity detector, version 0.8.2
Copyright (c) 2004 Oleg Berngardt. All rights reserved.
Copyright (c) 2004 Alexander Djourik. All rights reserved.
FILE: C.C. Catch - Catch The Catch.flac
  Size: 612512842 Hash: 281FA6246A0994F9984AC1302C2EC867 Accuracy: -m0
  Conclusion: CDDA 100%
  Signature: E0890FB51748D021980FF157715C5C1B2E941D8A

Содержимое индексной карты:

Код:
REM GENRE EuroDisco
REM DATE 2011
REM DISCID F112A912
REM COMMENT "ExactAudioCopy v1.0b3"
PERFORMER "C.C. Catch"
TITLE "Catch The Catch"
FILE "C.C. Catch - Catch The Catch.flac" WAVE
  TRACK 01 AUDIO
    TITLE "'Cause You Are Young (Maxi-Version)"
    PERFORMER "C.C. Catch"
    INDEX 01 00:00:00
  TRACK 02 AUDIO
    TITLE "I Can Lose My Heart Tonight (Maxi-Version)"
    PERFORMER "C.C. Catch"
    INDEX 00 04:51:23
    INDEX 01 04:53:23
  TRACK 03 AUDIO
    TITLE "You Shot A Hole In My Soul (Maxi-Version)"
    PERFORMER "C.C. Catch"
    INDEX 00 10:44:18
    INDEX 01 10:46:18
  TRACK 04 AUDIO
    TITLE "One Night's Not Enough"
    PERFORMER "C.C. Catch"
    INDEX 00 16:01:32
    INDEX 01 16:03:32
  TRACK 05 AUDIO
    TITLE "Strangers By Night (Maxi-Version)"
    PERFORMER "C.C. Catch"
    INDEX 00 19:24:00
    INDEX 01 19:26:00
  TRACK 06 AUDIO
    TITLE "Stay (Maxi-Version)"
    PERFORMER "C.C. Catch"
    INDEX 00 25:07:71
    INDEX 01 25:09:71
  TRACK 07 AUDIO
    TITLE "Jump In My Car (Maxi-Version)"
    PERFORMER "C.C. Catch"
    INDEX 00 30:56:64
    INDEX 01 30:58:64
  TRACK 08 AUDIO
    TITLE "You Can Be My Lucky Star Tonight (Maxi-Version)"
    PERFORMER "C.C. Catch"
    INDEX 00 35:31:08
    INDEX 01 35:33:08
  TRACK 09 AUDIO
    TITLE "’Cause You Are Young (Instrumental)"
    PERFORMER "C.C. Catch"
    INDEX 00 40:48:31
    INDEX 01 40:50:31
  TRACK 10 AUDIO
    TITLE "I Can Lose My Heart Tonight (Instrumental)"
    PERFORMER "C.C. Catch"
    INDEX 00 44:18:67
    INDEX 01 44:20:67
  TRACK 11 AUDIO
    TITLE "Strangers By Night (Instrumental)"
    PERFORMER "C.C. Catch"
    INDEX 00 48:09:66
    INDEX 01 48:11:66
  TRACK 12 AUDIO
    TITLE "Jump In My Car (Instrumental)"
    PERFORMER "C.C. Catch"
    INDEX 00 51:49:67
    INDEX 01 51:51:67
  TRACK 13 AUDIO
    TITLE "'Cause You Are Young (7'' Version)"
    PERFORMER "C.C. Catch"
    INDEX 00 55:57:61
    INDEX 01 55:59:61
  TRACK 14 AUDIO
    TITLE "I Can Lose My Heart Tonight (7'' Version)"
    PERFORMER "C.C. Catch"
    INDEX 00 59:27:62
    INDEX 01 59:29:62
  TRACK 15 AUDIO
    TITLE "You Shot A Hole In My Soul (7'' Version)"
    PERFORMER "C.C. Catch"
    INDEX 00 63:19:58
    INDEX 01 63:21:58
  TRACK 16 AUDIO
    TITLE "Strangers By Night (7'' Version)"
    PERFORMER "C.C. Catch"
    INDEX 00 66:48:29
    INDEX 01 66:50:29
  TRACK 17 AUDIO
    TITLE "Jump In My Car (7'' Version)"
    PERFORMER "C.C. Catch"
    INDEX 00 70:27:54
    INDEX 01 70:29:54
  TRACK 18 AUDIO
    TITLE "One Night's Not Enough (12'' Maxi-Version)"
    PERFORMER "C.C. Catch"
    INDEX 00 74:18:39
    INDEX 01 74:20:39

1986 - Welcome To The Heartbreak Hotel

Трек лист:
01. Heartbreak Hotel
02. Picture Blue Eyes
03. Tears Won't Wash Away My Heartache
04. V.I.P. (They're Callin' Me Tonight)
05. You Can't Run Away From It
06. Heaven And Hell
07. Hollywood Nights
08. Born On The Wind
09. Wild Fire
10. Stop - Draggin' My Heart Around
Bonus Tracks:
11. Heartbreak Hotel (Instrumental)
12. Heaven And Hell (Instrumental)
13. Heartbreak Hotel (Room 69 Mix)
14. Heaven And Hell (12'' Version)
Продолжительность: 00:53:14

Отчёт ЕАС:

Код:
Exact Audio Copy V1.0 beta 3 from 29. August 2011
Отчёт EAC об извлечении, выполненном 13. ноября 2011, 3:31
C.C. Catch / Welcome To The Heartbreak Hotel
Дисковод: ASUS    DRW-2014S1T   Adapter: 9  ID: 0
Режим чтения                 : Достоверность
Использование точного потока : Да
Отключение кэша аудио        : Да
Использование указателей C2  : Нет
Коррекция смещения при чтении                     : 6
Способность читать области Lead-in и Lead-out     : Нет
Заполнение пропущенных сэмплов тишиной            : Да
Удаление блоков с тишиной в начале и конце        : Нет
При вычислениях CRC использовались нулевые сэмплы : Да
Интерфейс                                         : Установленный внешний ASPI-интерфейс
Выходной формат : Внутренние WAV-операции
Формат сэмплов  : 44.100 Гц; 16 бит; стерео
TOC извлечённого CD
     Трек |   Старт  | Длительность | Начальный сектор | Конечный сектор
    ---------------------------------------------------------------------
       1  |  0:00.00 |    3:35.29   |           0      |      16153
       2  |  3:35.29 |    3:32.65   |       16154      |      32118
       3  |  7:08.19 |    4:20.62   |       32119      |      51680
       4  | 11:29.06 |    3:29.30   |       51681      |      67385
       5  | 14:58.36 |    3:14.17   |       67386      |      81952
       6  | 18:12.53 |    3:43.58   |       81953      |      98735
       7  | 21:56.36 |    3:12.74   |       98736      |     113209
       8  | 25:09.35 |    3:51.19   |      113210      |     130553
       9  | 29:00.54 |    3:38.50   |      130554      |     146953
      10  | 32:39.29 |    3:09.59   |      146954      |     161187
      11  | 35:49.13 |    3:36.32   |      161188      |     177419
      12  | 39:25.45 |    3:39.70   |      177420      |     193914
      13  | 43:05.40 |    4:56.02   |      193915      |     216116
      14  | 48:01.42 |    5:13.27   |      216117      |     239618
Характеристики диапазона извлечения и сообщения об ошибках
Выбранный диапазон
     Имя файла Z:\Temp\C.C. Catch - Welcome To The Heartbreak Hotel.wav
     Пиковый уровень 96.6 %
     Скорость извлечения 8.6 X
     Качество диапазона 100.0 %
     CRC теста 517AB180
     CRC копии 517AB180
     Копирование... OK
Ошибок не произошло
AccurateRip: сводка
Трек  1  отсутствует в базе данных
Трек  2  отсутствует в базе данных
Трек  3  отсутствует в базе данных
Трек  4  отсутствует в базе данных
Трек  5  отсутствует в базе данных
Трек  6  отсутствует в базе данных
Трек  7  отсутствует в базе данных
Трек  8  отсутствует в базе данных
Трек  9  отсутствует в базе данных
Трек 10  отсутствует в базе данных
Трек 11  отсутствует в базе данных
Трек 12  отсутствует в базе данных
Трек 13  отсутствует в базе данных
Трек 14  отсутствует в базе данных
Ни одного трека нет в базе AccurateRip
Конец отчёта
==== Контрольная сумма отчёта A4A54995C98DE9E64B87AEC10CA7E452DFA98CA693B0F3196353C5F1B1E5DADF ====

Отчёт auCDtectTaskManager:

Код:
-----------------------
DON'T MODIFY THIS FILE
-----------------------
PERFORMER: auCDtect Task Manager, ver. 1.5.1RC4 build 1.5.1.5
Copyright (c) 2008-2010 y-soft. All rights reserved
http://y-soft.org
ANALYZER: auCDtect: CD records authenticity detector, version 0.8.2
Copyright (c) 2004 Oleg Berngardt. All rights reserved.
Copyright (c) 2004 Alexander Djourik. All rights reserved.
FILE: C.C. Catch - Welcome To The Heartbreak Hotel.flac
  Size: 389954859 Hash: 5D7008DA22DFD9D24C0955B91D136381 Accuracy: -m0
  Conclusion: CDDA 100%
  Signature: 39B332EF165D815F409A506DCDBC5EDC7B65B6BD

Содержимое индексной карты:

Код:
REM GENRE EuroDisco
REM DATE 2011
REM DISCID B40C7A0E
REM COMMENT "ExactAudioCopy v1.0b3"
PERFORMER "C.C. Catch"
TITLE "Welcome To The Heartbreak Hotel"
FILE "C.C. Catch - Welcome To The Heartbreak Hotel.flac" WAVE
  TRACK 01 AUDIO
    TITLE "Heartbreak Hotel"
    PERFORMER "C.C. Catch"
    INDEX 01 00:00:00
  TRACK 02 AUDIO
    TITLE "Picture Blue Eyes"
    PERFORMER "C.C. Catch"
    INDEX 00 03:33:29
    INDEX 01 03:35:29
  TRACK 03 AUDIO
    TITLE "Tears Won't Wash Away My Heartache"
    PERFORMER "C.C. Catch"
    INDEX 00 07:06:19
    INDEX 01 07:08:19
  TRACK 04 AUDIO
    TITLE "V.I.P. (They're Callin' Me Tonight)"
    PERFORMER "C.C. Catch"
    INDEX 00 11:27:06
    INDEX 01 11:29:06
  TRACK 05 AUDIO
    TITLE "You Can't Run Away From It"
    PERFORMER "C.C. Catch"
    INDEX 00 14:56:36
    INDEX 01 14:58:36
  TRACK 06 AUDIO
    TITLE "Heaven And Hell"
    PERFORMER "C.C. Catch"
    INDEX 00 18:10:53
    INDEX 01 18:12:53
  TRACK 07 AUDIO
    TITLE "Hollywood Nights"
    PERFORMER "C.C. Catch"
    INDEX 00 21:54:36
    INDEX 01 21:56:36
  TRACK 08 AUDIO
    TITLE "Born On The Wind"
    PERFORMER "C.C. Catch"
    INDEX 00 25:07:35
    INDEX 01 25:09:35
  TRACK 09 AUDIO
    TITLE "Wild Fire"
    PERFORMER "C.C. Catch"
    INDEX 00 28:58:54
    INDEX 01 29:00:54
  TRACK 10 AUDIO
    TITLE "Stop - Draggin' My Heart Around"
    PERFORMER "C.C. Catch"
    INDEX 00 32:37:29
    INDEX 01 32:39:29
  TRACK 11 AUDIO
    TITLE "Heartbreak Hotel (Instrumental)"
    PERFORMER "C.C. Catch"
    INDEX 00 35:47:13
    INDEX 01 35:49:13
  TRACK 12 AUDIO
    TITLE "Heaven And Hell (Instrumental)"
    PERFORMER "C.C. Catch"
    INDEX 00 39:23:45
    INDEX 01 39:25:45
  TRACK 13 AUDIO
    TITLE "Heartbreak Hotel (Room 69 Mix)"
    PERFORMER "C.C. Catch"
    INDEX 00 43:03:40
    INDEX 01 43:05:40
  TRACK 14 AUDIO
    TITLE "Heaven And Hell (12'' Version)"
    PERFORMER "C.C. Catch"
    INDEX 00 47:59:42
    INDEX 01 48:01:42

1987 - Like A Hurricane

Трек лист:
01. Good Guys Only Win In Movies (Long Version)
02. Like A Hurricane
03. Smoky Joe's Cafe
04. Are You Man Enough
05. Don't Be A Hero
06. Soul Survivor (Long Version)
07. Midnight Gambler (Long Version)
08. Don't Wait Too Long
09. Dancing In Shadows
Bonus Tracks:
10. Are You Man Enough (Instrumental)
11. Soul Survivor (Instrumental)
12. Good Guys Only Win In Movies (7'' Version)
13. Soul Survivor (7'' Version)
14. Midnight Gambler (7'' Version)
15. Are You Man Enough (Long Version - Muscle Mix)
Продолжительность: 01:01:47

Отчёт ЕАС:

Код:
Exact Audio Copy V1.0 beta 3 from 29. August 2011
Отчёт EAC об извлечении, выполненном 13. ноября 2011, 4:40
C.C. Catch / Like A Hurricane
Дисковод: ASUS    DRW-2014S1T   Adapter: 9  ID: 0
Режим чтения                 : Достоверность
Использование точного потока : Да
Отключение кэша аудио        : Да
Использование указателей C2  : Нет
Коррекция смещения при чтении                     : 6
Способность читать области Lead-in и Lead-out     : Нет
Заполнение пропущенных сэмплов тишиной            : Да
Удаление блоков с тишиной в начале и конце        : Нет
При вычислениях CRC использовались нулевые сэмплы : Да
Интерфейс                                         : Установленный внешний ASPI-интерфейс
Выходной формат : Внутренние WAV-операции
Формат сэмплов  : 44.100 Гц; 16 бит; стерео
TOC извлечённого CD
     Трек |   Старт  | Длительность | Начальный сектор | Конечный сектор
    ---------------------------------------------------------------------
       1  |  0:00.00 |    5:45.31   |           0      |      25905
       2  |  5:45.31 |    3:16.59   |       25906      |      40664
       3  |  9:02.15 |    3:45.16   |       40665      |      57555
       4  | 12:47.31 |    3:38.64   |       57556      |      73969
       5  | 16:26.20 |    3:35.33   |       73970      |      90127
       6  | 20:01.53 |    5:13.23   |       90128      |     113625
       7  | 25:15.01 |    5:17.35   |      113626      |     137435
       8  | 30:32.36 |    3:26.30   |      137436      |     152915
       9  | 33:58.66 |    3:36.10   |      152916      |     169125
      10  | 37:35.01 |    3:38.46   |      169126      |     185521
      11  | 41:13.47 |    3:48.39   |      185522      |     202660
      12  | 45:02.11 |    3:51.68   |      202661      |     220053
      13  | 48:54.04 |    3:15.45   |      220054      |     234723
      14  | 52:09.49 |    3:33.36   |      234724      |     250734
      15  | 55:43.10 |    6:04.44   |      250735      |     278078
Характеристики диапазона извлечения и сообщения об ошибках
Выбранный диапазон
     Имя файла Z:\Temp\C.C. Catch - Like A Hurricane.wav
     Пиковый уровень 96.7 %
     Скорость извлечения 9.0 X
     Качество диапазона 100.0 %
     CRC теста 1740378B
     CRC копии 1740378B
     Копирование... OK
Ошибок не произошло
AccurateRip: сводка
Трек  1  отсутствует в базе данных
Трек  2  отсутствует в базе данных
Трек  3  отсутствует в базе данных
Трек  4  отсутствует в базе данных
Трек  5  отсутствует в базе данных
Трек  6  отсутствует в базе данных
Трек  7  отсутствует в базе данных
Трек  8  отсутствует в базе данных
Трек  9  отсутствует в базе данных
Трек 10  отсутствует в базе данных
Трек 11  отсутствует в базе данных
Трек 12  отсутствует в базе данных
Трек 13  отсутствует в базе данных
Трек 14  отсутствует в базе данных
Трек 15  отсутствует в базе данных
Ни одного трека нет в базе AccurateRip
Конец отчёта
==== Контрольная сумма отчёта D93AC68F31FD919E7E8877AD1B7176261901FB824EACAF72C19A85543A48BA80 ====

Отчёт auCDtectTaskManager:

Код:
-----------------------
DON'T MODIFY THIS FILE
-----------------------
PERFORMER: auCDtect Task Manager, ver. 1.5.1RC4 build 1.5.1.5
Copyright (c) 2008-2010 y-soft. All rights reserved
http://y-soft.org
ANALYZER: auCDtect: CD records authenticity detector, version 0.8.2
Copyright (c) 2004 Oleg Berngardt. All rights reserved.
Copyright (c) 2004 Alexander Djourik. All rights reserved.
FILE: C.C. Catch - Like A Hurricane.flac
  Size: 470400201 Hash: 5008AF6925B0597D8C8A691F16C2800C Accuracy: -m0
  Conclusion: CDDA 100%
  Signature: 0536C766F7D3AADBBE90DB0BB0416BA411E1899A

Содержимое индексной карты:

Код:
REM GENRE EuroDisco
REM DATE 2011
REM DISCID D00E7B0F
REM COMMENT "ExactAudioCopy v1.0b3"
PERFORMER "C.C. Catch"
TITLE "Like A Hurricane"
FILE "C.C. Catch - Like A Hurricane.flac" WAVE
  TRACK 01 AUDIO
    TITLE "Good Guys Only Win In Movies (Long Version)"
    PERFORMER "C.C. Catch"
    INDEX 01 00:00:00
  TRACK 02 AUDIO
    TITLE "Like A Hurricane"
    PERFORMER "C.C. Catch"
    INDEX 00 05:43:31
    INDEX 01 05:45:31
  TRACK 03 AUDIO
    TITLE "Smoky Joe's Cafe"
    PERFORMER "C.C. Catch"
    INDEX 00 09:00:15
    INDEX 01 09:02:15
  TRACK 04 AUDIO
    TITLE "Are You Man Enough"
    PERFORMER "C.C. Catch"
    INDEX 00 12:45:31
    INDEX 01 12:47:31
  TRACK 05 AUDIO
    TITLE "Don't Be A Hero"
    PERFORMER "C.C. Catch"
    INDEX 00 16:24:20
    INDEX 01 16:26:20
  TRACK 06 AUDIO
    TITLE "Soul Survivor (Long Version)"
    PERFORMER "C.C. Catch"
    INDEX 00 19:59:53
    INDEX 01 20:01:53
  TRACK 07 AUDIO
    TITLE "Midnight Gambler (Long Version)"
    PERFORMER "C.C. Catch"
    INDEX 00 25:13:01
    INDEX 01 25:15:01
  TRACK 08 AUDIO
    TITLE "Don't Wait Too Long"
    PERFORMER "C.C. Catch"
    INDEX 00 30:30:36
    INDEX 01 30:32:36
  TRACK 09 AUDIO
    TITLE "Dancing In Shadows"
    PERFORMER "C.C. Catch"
    INDEX 00 33:56:66
    INDEX 01 33:58:66
  TRACK 10 AUDIO
    TITLE "Are You Man Enough (Instrumental)"
    PERFORMER "C.C. Catch"
    INDEX 00 37:33:01
    INDEX 01 37:35:01
  TRACK 11 AUDIO
    TITLE "Soul Survivor (Instrumental)"
    PERFORMER "C.C. Catch"
    INDEX 00 41:11:47
    INDEX 01 41:13:47
  TRACK 12 AUDIO
    TITLE "Good Guys Only Win In Movies (7'' Version)"
    PERFORMER "C.C. Catch"
    INDEX 00 45:00:11
    INDEX 01 45:02:11
  TRACK 13 AUDIO
    TITLE "Soul Survivor (7'' Version)"
    PERFORMER "C.C. Catch"
    INDEX 00 48:52:04
    INDEX 01 48:54:04
  TRACK 14 AUDIO
    TITLE "Midnight Gambler (7'' Version)"
    PERFORMER "C.C. Catch"
    INDEX 00 52:07:49
    INDEX 01 52:09:49
  TRACK 15 AUDIO
    TITLE "Are You Man Enough (Long Version - Muscle Mix)"
    PERFORMER "C.C. Catch"
    INDEX 00 55:41:10
    INDEX 01 55:43:10

1988 - Big Fun

Трек лист:
01. Backseat Of Your Cadillac
02. Summer Kisses
03. Are You Serious
04. Night In Africa
05. Heartbeat City
06. Baby I Need Your Love
07. Little By Little
08. Nothing But A Heartache
09. If I Feel Love
10. Fire Of Love
Bonus Tracks:
11. Backseat Of Your Cadillac (Instrumental)
12. Summer Kisses (Extended Version)
13. Heartbeat City (Maxi Mix)
14. Baby I Need Your Love (Long Version)
15. Nothing But A Heartache (Extended Version)
16. Backseat Of Your Cadillac (Extended Version)
Продолжительность: 01:03:36

Отчёт ЕАС:

Код:
Exact Audio Copy V1.0 beta 3 from 29. August 2011
Отчёт EAC об извлечении, выполненном 13. ноября 2011, 5:25
C.C. Catch / Big Fun
Дисковод: ASUS    DRW-2014S1T   Adapter: 9  ID: 0
Режим чтения                 : Достоверность
Использование точного потока : Да
Отключение кэша аудио        : Да
Использование указателей C2  : Нет
Коррекция смещения при чтении                     : 6
Способность читать области Lead-in и Lead-out     : Нет
Заполнение пропущенных сэмплов тишиной            : Да
Удаление блоков с тишиной в начале и конце        : Нет
При вычислениях CRC использовались нулевые сэмплы : Да
Интерфейс                                         : Установленный внешний ASPI-интерфейс
Выходной формат : Внутренние WAV-операции
Формат сэмплов  : 44.100 Гц; 16 бит; стерео
TOC извлечённого CD
     Трек |   Старт  | Длительность | Начальный сектор | Конечный сектор
    ---------------------------------------------------------------------
       1  |  0:00.00 |    3:23.07   |           0      |      15231
       2  |  3:23.07 |    3:51.47   |       15232      |      32603
       3  |  7:14.54 |    3:07.25   |       32604      |      46653
       4  | 10:22.04 |    4:03.74   |       46654      |      64952
       5  | 14:26.03 |    3:38.53   |       64953      |      81355
       6  | 18:04.56 |    3:03.45   |       81356      |      95125
       7  | 21:08.26 |    3:07.11   |       95126      |     109161
       8  | 24:15.37 |    3:03.59   |      109162      |     122945
       9  | 27:19.21 |    3:42.35   |      122946      |     139630
      10  | 31:01.56 |    3:00.05   |      139631      |     153135
      11  | 34:01.61 |    3:16.13   |      153136      |     167848
      12  | 37:17.74 |    6:08.58   |      167849      |     195506
      13  | 43:26.57 |    4:56.49   |      195507      |     217755
      14  | 48:23.31 |    4:46.21   |      217756      |     239226
      15  | 53:09.52 |    5:07.40   |      239227      |     262291
      16  | 58:17.17 |    5:19.39   |      262292      |     286255
Характеристики диапазона извлечения и сообщения об ошибках
Выбранный диапазон
     Имя файла Z:\Temp\C.C. Catch - Big Fun.wav
     Пиковый уровень 96.7 %
     Скорость извлечения 9.0 X
     Качество диапазона 100.0 %
     CRC теста 92EED8DF
     CRC копии 92EED8DF
     Копирование... OK
Ошибок не произошло
AccurateRip: сводка
Трек  1  отсутствует в базе данных
Трек  2  отсутствует в базе данных
Трек  3  отсутствует в базе данных
Трек  4  отсутствует в базе данных
Трек  5  отсутствует в базе данных
Трек  6  отсутствует в базе данных
Трек  7  отсутствует в базе данных
Трек  8  отсутствует в базе данных
Трек  9  отсутствует в базе данных
Трек 10  отсутствует в базе данных
Трек 11  отсутствует в базе данных
Трек 12  отсутствует в базе данных
Трек 13  отсутствует в базе данных
Трек 14  отсутствует в базе данных
Трек 15  отсутствует в базе данных
Трек 16  отсутствует в базе данных
Ни одного трека нет в базе AccurateRip
Конец отчёта
==== Контрольная сумма отчёта B1E36D6B327CB0BE14007D86DFC75C5D51EA277812814E6E228CCADC22EF09C6 ====

Отчёт auCDtectTaskManager:

Код:
-----------------------
DON'T MODIFY THIS FILE
-----------------------
PERFORMER: auCDtect Task Manager, ver. 1.5.1RC4 build 1.5.1.5
Copyright (c) 2008-2010 y-soft. All rights reserved
http://y-soft.org
ANALYZER: auCDtect: CD records authenticity detector, version 0.8.2
Copyright (c) 2004 Oleg Berngardt. All rights reserved.
Copyright (c) 2004 Alexander Djourik. All rights reserved.
FILE: C.C. Catch - Big Fun.flac
  Size: 463566738 Hash: ECBFFACD1A0009C106106C6B04AA80E8 Accuracy: -m0
  Conclusion: CDDA 100%
  Signature: 6E1974DAD37DE24F79D3E223498F49E7E6D1A5ED

Содержимое индексной карты:

Код:
REM GENRE EuroDisco
REM DATE 2011
REM DISCID E00EE810
REM COMMENT "ExactAudioCopy v1.0b3"
PERFORMER "C.C. Catch"
TITLE "Big Fun"
FILE "C.C. Catch - Big Fun.flac" WAVE
  TRACK 01 AUDIO
    TITLE "Backseat Of Your Cadillac"
    PERFORMER "C.C. Catch"
    INDEX 01 00:00:00
  TRACK 02 AUDIO
    TITLE "Summer Kisses"
    PERFORMER "C.C. Catch"
    INDEX 00 03:21:07
    INDEX 01 03:23:07
  TRACK 03 AUDIO
    TITLE "Are You Serious"
    PERFORMER "C.C. Catch"
    INDEX 00 07:12:54
    INDEX 01 07:14:54
  TRACK 04 AUDIO
    TITLE "Night In Africa"
    PERFORMER "C.C. Catch"
    INDEX 00 10:20:04
    INDEX 01 10:22:04
  TRACK 05 AUDIO
    TITLE "Heartbeat City"
    PERFORMER "C.C. Catch"
    INDEX 00 14:24:03
    INDEX 01 14:26:03
  TRACK 06 AUDIO
    TITLE "Baby I Need Your Love"
    PERFORMER "C.C. Catch"
    INDEX 00 18:02:56
    INDEX 01 18:04:56
  TRACK 07 AUDIO
    TITLE "Little By Little"
    PERFORMER "C.C. Catch"
    INDEX 00 21:06:26
    INDEX 01 21:08:26
  TRACK 08 AUDIO
    TITLE "Nothing But A Heartache"
    PERFORMER "C.C. Catch"
    INDEX 00 24:13:37
    INDEX 01 24:15:37
  TRACK 09 AUDIO
    TITLE "If I Feel Love"
    PERFORMER "C.C. Catch"
    INDEX 00 27:17:21
    INDEX 01 27:19:21
  TRACK 10 AUDIO
    TITLE "Fire Of Love"
    PERFORMER "C.C. Catch"
    INDEX 00 30:59:56
    INDEX 01 31:01:56
  TRACK 11 AUDIO
    TITLE "Backseat Of Your Cadillac (Instrumental)"
    PERFORMER "C.C. Catch"
    INDEX 00 33:59:61
    INDEX 01 34:01:61
  TRACK 12 AUDIO
    TITLE "Summer Kisses (Extended Version)"
    PERFORMER "C.C. Catch"
    INDEX 00 37:15:74
    INDEX 01 37:17:74
  TRACK 13 AUDIO
    TITLE "Heartbeat City (Maxi Mix)"
    PERFORMER "C.C. Catch"
    INDEX 00 43:24:57
    INDEX 01 43:26:57
  TRACK 14 AUDIO
    TITLE "Baby I Need Your Love (Long Version)"
    PERFORMER "C.C. Catch"
    INDEX 00 48:21:31
    INDEX 01 48:23:31
  TRACK 15 AUDIO
    TITLE "Nothing But A Heartache (Extended Version)"
    PERFORMER "C.C. Catch"
    INDEX 00 53:07:52
    INDEX 01 53:09:52
  TRACK 16 AUDIO
    TITLE "Backseat Of Your Cadillac (Extended Version)"
    PERFORMER "C.C. Catch"
    INDEX 00 58:15:17
    INDEX 01 58:17:17

1990 - The Decade Remixes

Трек лист:
01. House Of Mystic Lights
02. Strangers By Night
03. Heartbreak Hotel
04. Heaven And Hell
05. Soul Survivor
06. Good Guys Only Win In Movies
07. Back Seat Of Your Cadillac
08. I Can Lose My Heart Tonight
09. Summer Kisses
10. The Decade 7'' Remix
Diamonds Supplement:
11. House Of Mystic Lights (Long Version - Dance Mix)
12. Don't Shoot My Sheriff Tonight
13. Do You Love As You Look
Bonus Tracks:
14. House Of Mystic Lights (Club Mix)
15. House Of Mystic Lights (Instrumental Mix)
16. House Of Mystic Lights (Radio Swing Mix)
Продолжительность: 00:53:12

Отчёт ЕАС:

Код:
Exact Audio Copy V1.0 beta 3 from 29. August 2011
Отчёт EAC об извлечении, выполненном 13. ноября 2011, 5:47
C.C. Catch / The Decade Remixes
Дисковод: ASUS    DRW-2014S1T   Adapter: 9  ID: 0
Режим чтения                 : Достоверность
Использование точного потока : Да
Отключение кэша аудио        : Да
Использование указателей C2  : Нет
Коррекция смещения при чтении                     : 6
Способность читать области Lead-in и Lead-out     : Нет
Заполнение пропущенных сэмплов тишиной            : Да
Удаление блоков с тишиной в начале и конце        : Нет
При вычислениях CRC использовались нулевые сэмплы : Да
Интерфейс                                         : Установленный внешний ASPI-интерфейс
Выходной формат : Внутренние WAV-операции
Формат сэмплов  : 44.100 Гц; 16 бит; стерео
TOC извлечённого CD
     Трек |   Старт  | Длительность | Начальный сектор | Конечный сектор
    ---------------------------------------------------------------------
       1  |  0:00.00 |    4:09.74   |           0      |      18748
       2  |  4:09.74 |    4:53.43   |       18749      |      40766
       3  |  9:03.42 |    2:48.16   |       40767      |      53382
       4  | 11:51.58 |    2:48.58   |       53383      |      66040
       5  | 14:40.41 |    2:33.24   |       66041      |      77539
       6  | 17:13.65 |    3:06.63   |       77540      |      91552
       7  | 20:20.53 |    2:07.20   |       91553      |     101097
       8  | 22:27.73 |    3:59.22   |      101098      |     119044
       9  | 26:27.20 |    1:25.74   |      119045      |     125493
      10  | 27:53.19 |    5:24.74   |      125494      |     149867
      11  | 33:18.18 |    4:09.74   |      149868      |     168616
      12  | 37:28.17 |    3:08.29   |      168617      |     182745
      13  | 40:36.46 |    3:32.55   |      182746      |     198700
      14  | 44:09.26 |    3:00.42   |      198701      |     212242
      15  | 47:09.68 |    2:59.31   |      212243      |     225698
      16  | 50:09.24 |    3:02.55   |      225699      |     239403
Характеристики диапазона извлечения и сообщения об ошибках
Выбранный диапазон
     Имя файла Z:\Temp\C.C. Catch - The Decade Remixes.wav
     Пиковый уровень 96.7 %
     Скорость извлечения 8.6 X
     Качество диапазона 100.0 %
     CRC теста 2BE56343
     CRC копии 2BE56343
     Копирование... OK
Ошибок не произошло
AccurateRip: сводка
Трек  1  отсутствует в базе данных
Трек  2  отсутствует в базе данных
Трек  3  отсутствует в базе данных
Трек  4  отсутствует в базе данных
Трек  5  отсутствует в базе данных
Трек  6  отсутствует в базе данных
Трек  7  отсутствует в базе данных
Трек  8  отсутствует в базе данных
Трек  9  отсутствует в базе данных
Трек 10  отсутствует в базе данных
Трек 11  отсутствует в базе данных
Трек 12  отсутствует в базе данных
Трек 13  отсутствует в базе данных
Трек 14  отсутствует в базе данных
Трек 15  отсутствует в базе данных
Трек 16  отсутствует в базе данных
Ни одного трека нет в базе AccurateRip
Конец отчёта
==== Контрольная сумма отчёта 64F7C48D10035EA618E0DDAE549D32096DFC42ACDC5C539816966EA1DA97BDBF ====

Отчёт auCDtectTaskManager:

Код:
-----------------------
DON'T MODIFY THIS FILE
-----------------------
PERFORMER: auCDtect Task Manager, ver. 1.5.1RC4 build 1.5.1.5
Copyright (c) 2008-2010 y-soft. All rights reserved
http://y-soft.org
ANALYZER: auCDtect: CD records authenticity detector, version 0.8.2
Copyright (c) 2004 Oleg Berngardt. All rights reserved.
Copyright (c) 2004 Alexander Djourik. All rights reserved.
FILE: C.C. Catch - The Decade Remixes.flac
  Size: 398685837 Hash: 2ACD13CCB028FFBE6646346159B1C55C Accuracy: -m0
  Conclusion: CDDA 100%
  Signature: 539494E7307AFC4C84B15E8CC25DC8926AF3CB89

Содержимое индексной карты:

Код:
REM GENRE EuroDisco
REM DATE 2011
REM DISCID BD0C7810
REM COMMENT "ExactAudioCopy v1.0b3"
PERFORMER "C.C. Catch"
TITLE "The Decade Remixes"
FILE "C.C. Catch - The Decade Remixes.flac" WAVE
  TRACK 01 AUDIO
    TITLE "House Of Mystic Lights"
    PERFORMER "C.C. Catch"
    INDEX 01 00:00:00
  TRACK 02 AUDIO
    TITLE "Strangers By Night"
    PERFORMER "C.C. Catch"
    INDEX 01 04:09:74
  TRACK 03 AUDIO
    TITLE "Heartbreak Hotel"
    PERFORMER "C.C. Catch"
    INDEX 01 09:03:42
  TRACK 04 AUDIO
    TITLE "Heaven And Hell"
    PERFORMER "C.C. Catch"
    INDEX 01 11:51:58
  TRACK 05 AUDIO
    TITLE "Soul Survivor"
    PERFORMER "C.C. Catch"
    INDEX 01 14:40:41
  TRACK 06 AUDIO
    TITLE "Good Guys Only Win In Movies"
    PERFORMER "C.C. Catch"
    INDEX 01 17:13:65
  TRACK 07 AUDIO
    TITLE "Back Seat Of Your Cadillac"
    PERFORMER "C.C. Catch"
    INDEX 01 20:20:53
  TRACK 08 AUDIO
    TITLE "I Can Lose My Heart Tonight"
    PERFORMER "C.C. Catch"
    INDEX 01 22:27:73
  TRACK 09 AUDIO
    TITLE "Summer Kisses"
    PERFORMER "C.C. Catch"
    INDEX 01 26:27:20
  TRACK 10 AUDIO
    TITLE "The Decade 7'' Remix"
    PERFORMER "C.C. Catch"
    INDEX 01 27:53:19
  TRACK 11 AUDIO
    TITLE "House Of Mystic Lights (Long Version - Dance Mix)"
    PERFORMER "C.C. Catch"
    INDEX 01 33:18:18
  TRACK 12 AUDIO
    TITLE "Don't Shoot My Sheriff Tonight"
    PERFORMER "C.C. Catch"
    INDEX 01 37:28:17
  TRACK 13 AUDIO
    TITLE "Do You Love As You Look"
    PERFORMER "C.C. Catch"
    INDEX 01 40:36:46
  TRACK 14 AUDIO
    TITLE "House Of Mystic Lights (Club Mix)"
    PERFORMER "C.C. Catch"
    INDEX 01 44:09:26
  TRACK 15 AUDIO
    TITLE "House Of Mystic Lights (Instrumental Mix)"
    PERFORMER "C.C. Catch"
    INDEX 01 47:09:68
  TRACK 16 AUDIO
    TITLE "House Of Mystic Lights (Radio Swing Mix)"
    PERFORMER "C.C. Catch"
    INDEX 01 50:09:24
Скачать раздачу

Просто зарегистрируйтесь и качайте на максимальной скорости (до 100 мбит/с)!

Обратите внимание, что локальная скорость может быть достинута лишь у абонентов интернет-провайдеров Ивановской области. Если вы не являетесь жителем Ивановской области (не подключены к местным стационарным интернет-провайдерам), скорость скачивания с ресурса у вас будет обычной, согласно вашему тарифному плану. Если же вы хотите использовать весь спектр возможностей ресурса - регистрация является обязательной, ведь это так просто!

 
▲ Наверх