Загрузка...
Ошибка

(психоактивная аудиопрограмма) Симфония мозга - (3хCD) (музыка для тонкой сонастройки полушарий мозга) - 2004, FLAC (image+.cue), lossless

Ответить на тему

Swasud

0  
Симфония мозга - (3хCD) (музыка для тонкой сонастройки полушарий мозга)- Год выпуска: 2004
Производитель: Gateway Sound Studio
Жанр: психоактивная аудиопрограмма
Аудиокодек: FLAC
Тип рипа: image+.cue+log
Битрейт аудио: lossless
Продолжительность: 2:06:13-Трэклист:
Диск 1 (Альфа-волны) Расслабление и медитация
Наслаждайтесь звуками водного царства — шумом волн, голосами морских зверей и птиц — в то время как текучий мелодический узор и сигналы МОДУСС незаметно отвяжут лодку вашего ума от пристани повседневных забот и плавно увлекут ее в теплый ласковый океан — прародину жизни, где под защитой Великой Матери вы почувствуете абсолютный мир и покой.
Диск содержит 4 композиции. С каждой из них частота альфа-волн постепенно понижается, что способствует постепенному переходу из спокойного бодрствования (трек 1) в состояние легкой медитации (трек 4). Диск хорошо подходит для быстрого восстановления сил в условиях больших эмоциональных нагрузок и стрессов, например, во время экзаменов.
Диск 2 (Тета-волны) Обучение и творчество
Диск содержит 5 композиций. Их можно прослушивать как по отдельности (если длительность композиции кажется вам недостаточной, можно ее зациклить); так и подряд.
Трек 1 (07:28) — Пение птиц и отзвуки грозы создадут у вас состояние отстраненности от окружающей обстановки, а сигналы МОДУСС на границе альфа- и тета-диапазонов будут способствовать появлению в уме ярких образов. Используйте этот трек в качестве фона для
отработки приемов самогипноза и самовнушения.
Трек 2 (12:21) — Плеск горного ручья и ритмичная мелодия в сочетании с тета-волнами способствуют наведению транса. Под эту музыку, как и в предыдущем случае, удобно отрабатывать навыки самогипноза и самовнушения, но возникающее состояние будет более глубоким и, следовательно, менее управляемым.
Трек 3 (08:11) — Вы снова соприкасаетесь с дыханием океана под “воздушные” аккорды синтезатора. Сигналы МОДУСС постепенно уходят все глубже в тета-область, помогая вашему уму стать текучим и подвижным, как вода. В таком уме легко зарождаются новые творческие идеи и решения самых сложных задач.
Трек 4 (5:04) — Вы полностью погружаетесь в фантастический мир грез. Может, вы попадете в какой-то райский сад или горное ущелье, где повстречаетесь с таинственным существом, которое даст ответ на самые сокровенные ваши вопросы. Если вам действительно выпадет такая удача, постарайтесь как-то зафиксировать полученный ответ, иначе потом его будет тяжело вспомнить. Имейте под рукой лист бумаги, на котором можно будет сделать пометки карандашом (с закрытыми глазами), или диктофон.
Трек 5 (8:07) — Стрекот цикад, легкая, как вечерний ветерок, мелодия синтезатора и сигналы МОДУСС подводят вас к границе, за которой начинается царство глубокого сна. В этом состоянии у вас могут быть очень необычные видения. Постарайтесь расширить свое сознание, охватить им сначала комнату, где вы находитесь, затем дом, город, затем всю нашу Землю и, наконец, всю Солнечную систему. Если на каком-то этапе вы отключитесь и уснете — что ж, приятного отдыха! А если удастся на протяжении всей композиции сохранить осознанность, “верните” в конце нее сознание обратно в бренное тело. Это будет прекрасным упражнением в медитации.
Диск 3 (Дельта-волны) Путешествие в мир сна
Как и предыдущий, этот диск содержит 5 композиций. Каждая из них служит ступенькой, уводящей все глубже в царство сна. В процессе прослушивания в вашем мозге активизируются так называемые дельта-волны, которые сопровождают самые таинственные явления человеческой психики. Кроме того, дельта-волны способствуют выделению гормона роста и, как следствие, восстановлению всех жизненных функций организма. Во время прослушивания диска не препятствуйте естественному желанию уснуть. Ведь он предназначен как раз для того, чтобы улучшить ваш сон и усилить его целительные свойства. Поэтому наибольшую пользу от этого диска вы получите, если будете слушать его на ночь.
Доп. информация:Симфония мозга - это музыка оркестра из звуков природы,синтезатора и сигналов МОДУСС,место дирижера в котором отведено Вам!Ведь Вы и только Вы управляете необычными состояниями сознания,которые вызывает прослушивание этой музыки.
P.S.: В релиз вложен информационный буклет в Word + cover
Источник:
Отчеты ЕАС:

Диск 1


Exact Audio Copy V0.99 prebeta 5 from 4. May 2009
Отчёт EAC об извлечении, выполненном 31. июля 2009, 16:24
- / Симфония мозга-CD1
Дисковод: MATSHITADVD-RAM UJ-850S Adapter: 1 ID: 1
Режим чтения : Достоверность
Использование точного потока : Да
Отключение кэша аудио : Да
Использование указателей C2 : Нет
Коррекция смещения при чтении : 102
Способность читать области Lead-in и Lead-out : Нет
Заполнение пропущенных сэмплов тишиной : Да
Удаление блоков с тишиной в начале и конце : Нет
При вычислениях CRC использовались нулевые сэмплы : Да
Интерфейс : Установленный внешний ASPI-интерфейс
Выходной формат : Пользовательский кодировщик
Выбранный битрейт : 768 kBit/s
Качество : Высокий
Добавление ID3-тэга : Нет
Утилита сжатия : C:\Program Files\Exact Audio Copy\FLAC\FLAC.EXE
Дополнительные параметры : -6 -V -T "ARTIST=%a" -T "TITLE=%t" -T "ALBUM=%g" -T "DATE=%y" -T "TRACKNUMBER=%n" -T "GENRE=%m" -T "COMMENT=%e" %s -o %d
Смещение при сжатии : 0
TOC извлечённого CD
Трек | Старт | Длительность | Начальный сектор | Конечный сектор
---------------------------------------------------------------------
1 | 0:00.00 | 16:45.00 | 0 | 75374
2 | 16:45.00 | 4:16.28 | 75375 | 94602
3 | 21:01.28 | 17:08.53 | 94603 | 171755
4 | 38:10.06 | 7:18.64 | 171756 | 204669
Характеристики диапазона извлечения и сообщения об ошибках
Выбранный диапазон
Имя файла C:\Documents and Settings\All Users\Документы\Симфония мозга\CD-1\Симфония мозга-CD1.wav
Пиковый уровень 86.9 %
Качество диапазона 100.0 %
CRC теста 60B8D102
CRC копии 60B8D102
Копирование... OK
Ошибок не произошло
Конец отчёта

Диск 2


Exact Audio Copy V0.99 prebeta 5 from 4. May 2009
Отчёт EAC об извлечении, выполненном 31. июля 2009, 20:04
- / Симфония мозга-CD2
Дисковод: MATSHITADVD-RAM UJ-850S Adapter: 1 ID: 1
Режим чтения : Достоверность
Использование точного потока : Да
Отключение кэша аудио : Да
Использование указателей C2 : Нет
Коррекция смещения при чтении : 102
Способность читать области Lead-in и Lead-out : Нет
Заполнение пропущенных сэмплов тишиной : Да
Удаление блоков с тишиной в начале и конце : Нет
При вычислениях CRC использовались нулевые сэмплы : Да
Интерфейс : Установленный внешний ASPI-интерфейс
Выходной формат : Пользовательский кодировщик
Выбранный битрейт : 768 kBit/s
Качество : Высокий
Добавление ID3-тэга : Нет
Утилита сжатия : C:\Program Files\Exact Audio Copy\FLAC\FLAC.EXE
Дополнительные параметры : -6 -V -T "ARTIST=%a" -T "TITLE=%t" -T "ALBUM=%g" -T "DATE=%y" -T "TRACKNUMBER=%n" -T "GENRE=%m" -T "COMMENT=%e" %s -o %d
Смещение при сжатии : 0
TOC извлечённого CD
Трек | Старт | Длительность | Начальный сектор | Конечный сектор
---------------------------------------------------------------------
1 | 0:00.00 | 7:15.00 | 0 | 32624
2 | 7:15.00 | 12:19.74 | 32625 | 88123
3 | 19:34.74 | 8:04.00 | 88124 | 124423
4 | 27:38.74 | 4:23.01 | 124424 | 144149
5 | 32:02.00 | 8:07.27 | 144150 | 180701
Характеристики диапазона извлечения и сообщения об ошибках
Выбранный диапазон
Имя файла C:\Documents and Settings\All Users\Документы\Симфония мозга\CD-2\Симфония мозга-CD2.wav
Пиковый уровень 92.5 %
Качество диапазона 100.0 %
CRC теста 4977C3B5
CRC копии 4977C3B5
Копирование... OK
Ошибок не произошло
Конец отчёта

Диск 3


Exact Audio Copy V0.99 prebeta 5 from 4. May 2009
Отчёт EAC об извлечении, выполненном 31. июля 2009, 18:54
- / Симфония мозга-CD3
Дисковод: MATSHITADVD-RAM UJ-850S Adapter: 1 ID: 1
Режим чтения : Достоверность
Использование точного потока : Да
Отключение кэша аудио : Да
Использование указателей C2 : Нет
Коррекция смещения при чтении : 102
Способность читать области Lead-in и Lead-out : Нет
Заполнение пропущенных сэмплов тишиной : Да
Удаление блоков с тишиной в начале и конце : Нет
При вычислениях CRC использовались нулевые сэмплы : Да
Интерфейс : Установленный внешний ASPI-интерфейс
Выходной формат : Пользовательский кодировщик
Выбранный битрейт : 768 kBit/s
Качество : Высокий
Добавление ID3-тэга : Нет
Утилита сжатия : C:\Program Files\Exact Audio Copy\FLAC\FLAC.EXE
Дополнительные параметры : -6 -V -T "ARTIST=%a" -T "TITLE=%t" -T "ALBUM=%g" -T "DATE=%y" -T "TRACKNUMBER=%n" -T "GENRE=%m" -T "COMMENT=%e" %s -o %d
Смещение при сжатии : 0
TOC извлечённого CD
Трек | Старт | Длительность | Начальный сектор | Конечный сектор
---------------------------------------------------------------------
1 | 0:00.00 | 4:40.00 | 0 | 20999
2 | 4:40.00 | 7:12.00 | 21000 | 53399
3 | 11:52.00 | 7:52.00 | 53400 | 88799
4 | 19:44.00 | 10:20.00 | 88800 | 135299
5 | 30:04.00 | 10:32.28 | 135300 | 182727
Характеристики диапазона извлечения и сообщения об ошибках
Выбранный диапазон
Имя файла C:\Documents and Settings\All Users\Документы\Симфония мозга\CD-3\Симфония мозга-CD3.wav
Пиковый уровень 91.2 %
Качество диапазона 99.9 %
CRC теста 9B5D77DA
CRC копии 9B5D77DA
Копирование... OK
Ошибок не произошло
Конец отчёта
Скачать раздачу

Просто зарегистрируйтесь и качайте на максимальной скорости (до 100 мбит/с)!

Обратите внимание, что локальная скорость может быть достинута лишь у абонентов интернет-провайдеров Ивановской области. Если вы не являетесь жителем Ивановской области (не подключены к местным стационарным интернет-провайдерам), скорость скачивания с ресурса у вас будет обычной, согласно вашему тарифному плану. Если же вы хотите использовать весь спектр возможностей ресурса - регистрация является обязательной, ведь это так просто!

 

[email protected]

0  
ОооОо круто! У меня как раз правое полушарие с левым поссорилось. Надо помирить.
 

melmen

0  
Дайте пожалуйста раздачу
 

jeka-76

0  
дайте пожалуска скачать а то у меня крыша едет и шифер едит
 

melmen

0  
стою на раздаче почти весь день, проблемы не вижу, скачивайте в своё удовольствие
 

Swet_Lana

-1  
Есть кто живой? Дайте плиз раздачу.
 
▲ Наверх