Загрузка...
Ошибка

(Eurodance) Джимми Джи и Мистер Босс - Ю-ла [1995, FLAC (image+.cue), lossless]

Ответить на тему

Scribe

0  
-Джимми Джи и Мистер Босс
«Ю-ЛА»-
-
Жанр: Eurodance
Год выпуска диска: 1995
Производитель диска: Sweden
Аудио кодек: FLAC
Тип рипа: image+.cue
Битрейт аудио: lossless
Продолжительность:47:08
-=Трэклист=:
01. Юла (3:49)
02. Ходил далеко (5:21)
03. Эгоист (3:52)
04. Timeto (4:04)
05. Белый дождь (4:39)
06. Танцуй в темноте (4:21)
07. Лето (4:46)
08. Дача (4:06)
09. On, On, On (3:48)
10. Shake It (4:11)
11. Эгоист (mega mix DJ MAX) (4:11)-Вокалистка Юля, она же :
Юля Фролова (она же ex-Ю-ла) поёт за Vitas'а, точнее, то что все слышали на первых дисках "певца" - старания Юли, ну кроме конечно шёпота самого Витаса короче все эти крики, вопли и завывания - это всё Ю-ла + студийная работа, сэмплирование всякое, вокодеры, процессоры...-

Back

Лог

Exact Audio Copy V0.99 prebeta 5 from 4. May 2009
Отчёт EAC об извлечении, выполненном 9. августа 2009, 22:27
Джимми Джи и Мистер Босс / Ю-ла
Дисковод: ASUS DRW-1814BL Adapter: 1 ID: 0
Режим чтения : Достоверность
Использование точного потока : Да
Отключение кэша аудио : Да
Использование указателей C2 : Нет
Коррекция смещения при чтении : 6
Способность читать области Lead-in и Lead-out : Нет
Заполнение пропущенных сэмплов тишиной : Да
Удаление блоков с тишиной в начале и конце : Нет
При вычислениях CRC использовались нулевые сэмплы : Да
Интерфейс : Установленный внешний ASPI-интерфейс
Выходной формат : Внутренние WAV-операции
Формат сэмплов : 44.100 Гц; 16 бит; стерео
TOC извлечённого CD
Трек | Старт | Длительность | Начальный сектор | Конечный сектор
---------------------------------------------------------------------
1 | 0:00.70 | 3:48.62 | 70 | 17231
2 | 3:49.57 | 5:21.28 | 17232 | 41334
3 | 9:11.10 | 3:51.70 | 41335 | 58729
4 | 13:03.05 | 4:03.50 | 58730 | 77004
5 | 17:06.55 | 4:39.30 | 77005 | 97959
6 | 21:46.10 | 4:21.20 | 97960 | 117554
7 | 26:07.30 | 4:46.35 | 117555 | 139039
8 | 30:53.65 | 4:06.10 | 139040 | 157499
9 | 35:00.00 | 3:47.62 | 157500 | 174586
10 | 38:47.62 | 4:10.40 | 174587 | 193376
11 | 42:58.27 | 4:10.45 | 193377 | 212171
Характеристики диапазона извлечения и сообщения об ошибках
Выбранный диапазон
Имя файла E:\НА-А-А-АШЕ!!!!!!!\Джимми Джи и Мистер Босс - Ю-ла\Джимми Джи и Мистер Босс - Ю-ла.wav
Пиковый уровень 89.1 %
Качество диапазона 100.0 %
CRC теста 188C6554
CRC копии 188C6554
Копирование... OK
Ошибок не произошло
AccurateRip: сводка
Трек 1 нет в базе данных
Трек 2 нет в базе данных
Трек 3 нет в базе данных
Трек 4 нет в базе данных
Трек 5 нет в базе данных
Трек 6 нет в базе данных
Трек 7 нет в базе данных
Трек 8 нет в базе данных
Трек 9 нет в базе данных
Трек 10 нет в базе данных
Трек 11 нет в базе данных
Ни одного трека нет в базе AccurateRip
Конец отчёта
Скачать раздачу

Просто зарегистрируйтесь и качайте на максимальной скорости (до 100 мбит/с)!

Обратите внимание, что локальная скорость может быть достинута лишь у абонентов интернет-провайдеров Ивановской области. Если вы не являетесь жителем Ивановской области (не подключены к местным стационарным интернет-провайдерам), скорость скачивания с ресурса у вас будет обычной, согласно вашему тарифному плану. Если же вы хотите использовать весь спектр возможностей ресурса - регистрация является обязательной, ведь это так просто!

 

CapsLock

0  
а случайно нет у тебя "Джимми Джи & Мистер Босс - Хадил далико, но ни нашол вуман..."
 

Scribe

0  
а случайно нет у тебя "Джимми Джи & Мистер Босс - Хадил далико, но ни нашол вуман..."
оно самое ))) здесь, трЕк намбер 2, ну и остальное рашен евраданс
 
▲ Наверх