Загрузка...
Ошибка

Во все тяжкие / Breaking Bad (Сезон 4) (Адам Бернштейн) [2011, криминальная драма, WEB-DLRip] (Кубик в Кубе)

Ответить на тему

Handsomuk

0  
Во все тяжкие / Breaking Bad- Год выпуска: 2011
Страна: США
Жанр: криминальная драма
Продолжительность: ~ 47 мин
Перевод: Профессиональный (двухголосый, закадровый) (Кубик в Кубе)
Русские субтитры: русские (внешние)-Режиссёр: Адам Бернштейн-В ролях: Брайан Кренстон, Анна Ганн, АрДжи Митт, Арон Пол, Бетси Брендт, Дин Норрис-Описание: Уолтер Уайт — преподаватель химии в школе. У него есть жена и сын-инвалид, жена ждет еще одного ребенка. Уолт уже не молод, и в этом возрасте часто бывают кризисы, тем более нужно кормить семью, а на зарплату преподавателя не разгуляешься, поэтому он вынужден подрабатывать на автомойке, где его же студенты над ним насмехаются, а еще сын, чью инвалидность тоже постоянно осмеивают.
Его свояк работает в Управлении по борьбе с наркотиками и однажды предлагает поучаствовать в облаве на дом, где находится лаборатория по приготовлению метамфентамина. Во время облавы Уолт случайно видит, как один дилер сбегает от облавы, им оказывается его бывший студент.
Уолт решает заняться с ним бизнесом по приготовлению метамфетамина, так как он на изломе, что ему терять: он бросил работу на автомойке, секс с женой ограничивается только рукоблудием с ее стороны, ему поставили диагноз — неоперабельный рак легких, да и свояк постоянно говорит, что метамфетамин приносит огромные деньги. Кто еще может приготовить чистейший метамфетамин, как не учитель химии?
Уолт и его напарник снимают трейлер и организуют там лабораторию, уехав перед тем в пустыню, подальше от глаз. Первая партия готова, напарник Уолта, Джесси, идет ее реализовывать…-Качество: WEB-DLRip (Семпл / Источник)
Формат: AVI
Видео кодек: XviD
Аудио кодек: MP3, AC3
Видео: 720x400 (1.80:1), 23.976 fps, ~1745 kbps, 0.253 bit/pixel
Аудио RUS: MP3, 48 kHz, 2 ch, ~256 Kbps avg (CBR)
Аудио ENG: AC3, 48 kHz, 2 ch, ~256 Kbps avg (CBR)-Озвучка: Кубик в Кубе
Перевод: Инга Бу
Подготовка видео: lostrator
Постер: 5H1-Внимание!
Сериал содержит ненормативную лексику и сцены сексуального характера, не рекомендуется к просмотру лицам до 18 лет.
-

Список выхода оригинальных серий

Season 4, Episode 1: Box Cutter
Original Air Date—17 July 2011
Season 4, Episode 2: Thirty-Eight Snub
Original Air Date—24 July 2011
Season 4, Episode 3: Open House
Original Air Date—31 July 2011
Season 4, Episode 4: Bullet Points
Original Air Date—7 August 2011
Season 4, Episode 5: Shotgun
Original Air Date—14 August 2011
Season 4, Episode 6: Cornered
Original Air Date—21 August 2011
Season 4, Episode 7: Problem Dog
Original Air Date—28 August 2011
Season 4, Episode 8: Episode #4.8
Original Air Date—4 September 2011
Season 4, Episode 9: Episode #4.9
Original Air Date—11 September 2011
Season 4, Episode 10: Episode #4.10
Original Air Date—18 September 2011
Season 4, Episode 11: Episode #4.11
Original Air Date—25 September 2011
Season 4, Episode 12: Episode #4.12
Original Air Date—2 October 2011
Season 4, Episode 13: Episode #4.13
Original Air Date—9 October 2011
-

MI

Код:
General
Complete name                    : C:\Downloads\uTorrent\Breaking Bad S04 WEB-DLRip Kubik v Kube\Breaking.Bad.s04e01.k3.avi
Format                           : AVI
Format/Info                      : Audio Video Interleave
File size                        : 766 MiB
Duration                         : 47mn 9s
Overall bit rate                 : 2 271 Kbps
Writing application              : VirtualDubMod 1.5.10.2 (build 2542/release)
Writing library                  : VirtualDubMod build 2542/release
Video
ID                               : 0
Format                           : MPEG-4 Visual
Format profile                   : Advanced [email protected]
Format settings, BVOP            : 1
Format settings, QPel            : No
Format settings, GMC             : No warppoints
Format settings, Matrix          : Custom
Codec ID                         : XVID
Codec ID/Hint                    : XviD
Duration                         : 47mn 9s
Bit rate                         : 1 745 Kbps
Width                            : 720 pixels
Height                           : 400 pixels
Display aspect ratio             : 16:9
Frame rate                       : 23.976 fps
Color space                      : YUV
Chroma subsampling               : 4:2:0
Bit depth                        : 8 bits
Scan type                        : Progressive
Compression mode                 : Lossy
Bits/(Pixel*Frame)               : 0.253
Stream size                      : 589 MiB (77%)
Writing library                  : XviD 64
Audio #1
ID                               : 1
Format                           : MPEG Audio
Format version                   : Version 1
Format profile                   : Layer 3
Codec ID                         : 55
Codec ID/Hint                    : MP3
Duration                         : 47mn 9s
Bit rate mode                    : Constant
Bit rate                         : 256 Kbps
Channel(s)                       : 2 channels
Sampling rate                    : 48.0 KHz
Compression mode                 : Lossy
Stream size                      : 86.4 MiB (11%)
Alignment                        : Aligned on interleaves
Interleave, duration             : 42 ms (1.00 video frame)
Interleave, preload duration     : 504 ms
Audio #2
ID                               : 2
Format                           : AC-3
Format/Info                      : Audio Coding 3
Mode extension                   : CM (complete main)
Codec ID                         : 2000
Duration                         : 47mn 9s
Bit rate mode                    : Constant
Bit rate                         : 256 Kbps
Channel(s)                       : 2 channels
Channel positions                : Front: L R
Sampling rate                    : 48.0 KHz
Bit depth                        : 16 bits
Compression mode                 : Lossy
Stream size                      : 86.4 MiB (11%)
Alignment                        : Split accross interleaves
Interleave, duration             : 42 ms (1.00 video frame)
Interleave, preload duration     : 500 ms

Скриншоты

   
  

Внимание! Раздача ведётся путём добавления новых серий

Внимание! Раздача ведётся путём добавления новых серий; при каждом добавлении создётся новый торрент. Чтобы начать докачку новой серии, пользователям необходимо сделать следующее:
(1) остановить скачивание,
(2) удалить старый торрент-файл у себя из клиента (старые серии удалять не надо),
(3) скачать новый торрент-файл из раздачи и запустить его у себя в клиенте вместо старого, при этом указать клиенту путь в старую папку куда и должно происходить скачивание новых серий.
Ваш клиент при этом должен произвести хеширование (проверку) старой папки (если не производит сам - помогите ему сделать это), и будет докачивать только те серии которых у вас ещё нет. Старые серии при этом не удаляются, а продолжают раздаваться!
Eсли вы уже посмотрели и удалили старые серии, то предотвратить повторную закачку старых серий можно, сняв галочки в соответсвующих местах при запуске нового торрента. По возможности, желательно не удалять старые серии как можно дольше чтобы релизёр не столько продолжал раздавать старые серии, а смог сконцентрироваться на новых.
Скачать раздачу

Просто зарегистрируйтесь и качайте на максимальной скорости (до 100 мбит/с)!

Обратите внимание, что локальная скорость может быть достинута лишь у абонентов интернет-провайдеров Ивановской области. Если вы не являетесь жителем Ивановской области (не подключены к местным стационарным интернет-провайдерам), скорость скачивания с ресурса у вас будет обычной, согласно вашему тарифному плану. Если же вы хотите использовать весь спектр возможностей ресурса - регистрация является обязательной, ведь это так просто!

 

Evgenui1

-3  
На лостфильме написано что премьера 4 сезона 21 числа. Откуда тут раньше)
 

Handsomuk

0  
Evgenui1
ну так будьте внимательны, тут перевод не лоста ;)
 

[ReBorn]

+1  
Спасибо за релиз Very Happy
 

Handsomuk

0  
[ReBorn] ;)
добавил график выхода оригинальных серий )
 

Handsomuk

0  
Добавлена 2-ая серия.
 

Enik

0  
кубик в кубике гораздо лучше для этого сериала чем цензурный лостфильм,, спс!
 

Handsomuk

-1  
Enik
и переводят быстрее Smile
 

Handsomuk

0  
Что-то забыл про релиз Smile))
Добавлены 3-4 серии!!!
 

Handsomuk

0  
Добавлена 5-ая серия!!!
 

Handsomuk

0  
Добавлена 6-ая серия!!!
 

Handsomuk

0  
Добавлена 7-ая серия!!!
 

Handsomuk

+1  
Добавлена 8-ая серия!!!
 

Handsomuk

0  
Добавлена 9-ая серия!!!
 

Handsomuk

0  
Добавлена 10-ая серия!!!
 

Handsomuk

0  
Добавлена 11-ая серия!!!
 

Handsomuk

0  
Добавлена 12-ая серия!!!
 

Handsomuk

0  
В районе 9-10 вечера добавлю 13ую
Добавлено спустя 3 часа 1 минута 23 секунды:
Добавлена 13-ая серия!!!
Добавлено спустя 32 секунды:
Сезон окончен ) Всем приятного просмотра Smile))
 
▲ Наверх