Загрузка...
Ошибка

Мир Юрского периода 2 / Jurassic World: Fallen Kingdom 3D (Хуан Антонио Байона) [2018, Фантастика, Боевик, Приключения, BDrip-AVC] Half OverUnder / Вертикальная анаморфная стереопара

Ответить на тему

itsamna

0  
Мир Юрского периода 2
Jurassic World: Fallen Kingdom

Год выпуска: 2018
Выпущено: Universal Pictures, Amblin Entertainment, Legendary Pictures, Perfect World Pictures
Жанр: фантастика, боевик, приключения
Продолжительность: 02:08:18
Перевод: Профессиональный (полное дублирование)
Режиссер: Хуан Антонио Байона
В ролях: Крис Пратт, Брайс Даллас Ховард, Рейф Сполл, Джастис Смит, Даниэлла Пинеда, Джеймс Кромуэлл, Тоби Джонс, Тед Левайн, Джефф Голдблюм, Б.Д. Вонг
О фильме:
На острове Нублар, где не так давно располагался парк развлечений с динозаврами, правит бал дикая природа, но внезапно пробудившийся вулкан угрожает стереть динозавров с лица земли. Бывшая управляющая парком Клэр Диринг переквалифицировалась в защитницу исчезающих видов и пытается сделать всё, чтобы спасти доисторических животных. На неё выходит Илай Миллс — доверенное лицо миллиардера Бенждамина Локвуда, который много лет назад был соратником профессора Хаммонда. Миллс предлагает Клэр, знакомой с системой безопасности парка, поехать на остров и помочь ему поймать нескольких особей, чтобы вывести их на другой безопасный остров. Клэр даже удается уговорить своего бывшего парня, дрессировщика Оуэена, принять участие в спасательной миссии, но по прибытии в парк, выясняется, что у Миллса совсем другие цели.
Качество: BDrip
Контейнер: MKV
Формат 3D: Half OverUnder / Вертикальная анаморфная стереопара
Порядок ракурсов: левый ракурс первый
Видео кодек: x264
Аудио кодек: AC-3
Видео: AVC, [email protected], 1920х1080, 23,976 кадра/сек, 10000 Кбит/сек
Аудио:
#1 - Русский / AC3 / 48 KHz / 5.1 ch / 384 Kbps (Дубляж - iTunes)
#2 - Английский / AC3 / 48 KHz / 5.1 ch / 640 Kbps (Original - BD 3D CEE)
Cубтитры: русские, английские

Скриншоты



Media Info

General
Unique ID : 233660682842194764373971200111737108071 (0xAFC9691C80D56385B818956FFE1CF667)
Complete name : D:\JurassicWorld2(2018)3D-halfOU(Ash61)iTunes\JurassicWorld2(2018)3D-halfOU(Ash61)iTunes.mkv
Format : Matroska
Format version : Version 2
File size : 10.1 GiB
Duration : 2h 8mn
Overall bit rate : 11.2 Mbps
Movie name : Мир Юрского периода 2 / Jurassic World: Fallen Kingdom (2018) in 3D
Encoded date : UTC 2018-09-12 12:39:47
Writing application : mkvmerge v5.8.0 ('No Sleep / Pillow') built on Sep 2 2012 15:37:04
Writing library : libebml v1.2.3 + libmatroska v1.3.0
Video
ID : 1
Format : AVC
Format/Info : Advanced Video Codec
Format profile : [email protected]
Format settings, CABAC : Yes
Format settings, ReFrames : 4 frames
Codec ID : V_MPEG4/ISO/AVC
Duration : 2h 8mn
Bit rate : 10 000 Kbps
Width : 1 920 pixels
Height : 1 080 pixels
Display aspect ratio : 16:9
Frame rate mode : Constant
Frame rate : 23.976 (24000/1001) fps
Color space : YUV
Chroma subsampling : 4:2:0
Bit depth : 8 bits
Scan type : Progressive
Bits/(Pixel*Frame) : 0.201
Stream size : 8.76 GiB (87%)
Title : BDRip by Ash61
Writing library : x264 core 146 r2538 121396c
Encoding settings : cabac=1 / ref=4 / deblock=1:-3:-3 / analyse=0x3:0x113 / me=umh / subme=10 / psy=1 / psy_rd=1.00:0.00 / mixed_ref=1 / me_range=32 / chroma_me=1 / trellis=2 / 8x8dct=1 / cqm=0 / deadzone=21,11 / fast_pskip=0 / chroma_qp_offset=-2 / threads=12 / lookahead_threads=3 / sliced_threads=0 / nr=0 / decimate=0 / interlaced=0 / bluray_compat=0 / constrained_intra=0 / bframes=10 / b_pyramid=2 / b_adapt=2 / b_bias=0 / direct=3 / weightb=1 / open_gop=0 / weightp=2 / keyint=250 / keyint_min=23 / scenecut=40 / intra_refresh=0 / rc_lookahead=60 / rc=2pass / mbtree=0 / bitrate=10000 / ratetol=1.0 / qcomp=0.70 / qpmin=0 / qpmax=69 / qpstep=4 / cplxblur=20.0 / qblur=0.5 / vbv_maxrate=40000 / vbv_bufsize=30000 / nal_hrd=none / filler=0 / frame-packing=4 / ip_ratio=1.40 / pb_ratio=1.30 / aq=1:0.70
Language : English
Default : Yes
Forced : No
Audio #1
ID : 2
Format : AC-3
Format/Info : Audio Coding 3
Mode extension : CM (complete main)
Format settings, Endianness : Big
Codec ID : A_AC3
Duration : 2h 8mn
Bit rate mode : Constant
Bit rate : 384 Kbps
Channel(s) : 6 channels
Channel positions : Front: L C R, Side: L R, LFE
Sampling rate : 48.0 KHz
Frame rate : 31.250 fps (1536 spf)
Compression mode : Lossy
Stream size : 353 MiB (3%)
Title : Дубляж [iTunes]
Language : Russian
Default : Yes
Forced : No
Audio #2
ID : 3
Format : AC-3
Format/Info : Audio Coding 3
Mode extension : CM (complete main)
Format settings, Endianness : Big
Codec ID : A_AC3
Duration : 2h 8mn
Bit rate mode : Constant
Bit rate : 192 Kbps
Channel(s) : 2 channels
Channel positions : Front: L R
Sampling rate : 48.0 KHz
Frame rate : 31.250 fps (1536 spf)
Compression mode : Lossy
Stream size : 176 MiB (2%)
Title : Дубляж
Language : Ukrainian
Default : No
Forced : No
Audio #3
ID : 4
Format : AC-3
Format/Info : Audio Coding 3
Mode extension : CM (complete main)
Format settings, Endianness : Big
Codec ID : A_AC3
Duration : 2h 8mn
Bit rate mode : Constant
Bit rate : 640 Kbps
Channel(s) : 6 channels
Channel positions : Front: L C R, Side: L R, LFE
Sampling rate : 48.0 KHz
Frame rate : 31.250 fps (1536 spf)
Compression mode : Lossy
Stream size : 588 MiB (6%)
Title : Original
Language : English
Default : No
Forced : No
Text #1
ID : 5
Format : UTF-8
Codec ID : S_TEXT/UTF8
Codec ID/Info : UTF-8 Plain Text
Title : Форсированные [ver. Ash61]
Language : Russian
Default : Yes
Forced : No
Text #2
ID : 6
Format : UTF-8
Codec ID : S_TEXT/UTF8
Codec ID/Info : UTF-8 Plain Text
Title : Полные [Ruf]
Language : Russian
Default : No
Forced : No
Text #3
ID : 7
Format : UTF-8
Codec ID : S_TEXT/UTF8
Codec ID/Info : UTF-8 Plain Text
Title : Полные [FOCS]
Language : Russian
Default : No
Forced : No
Text #4
ID : 8
Format : UTF-8
Codec ID : S_TEXT/UTF8
Codec ID/Info : UTF-8 Plain Text
Title : Форсированные [ver. Ash61]
Language : Ukrainian
Default : No
Forced : No
Text #5
ID : 9
Format : UTF-8
Codec ID : S_TEXT/UTF8
Codec ID/Info : UTF-8 Plain Text
Title : Full
Language : English
Default : No
Forced : No
Text #6
ID : 10
Format : UTF-8
Codec ID : S_TEXT/UTF8
Codec ID/Info : UTF-8 Plain Text
Title : SDH
Language : English
Default : No
Forced : No
Menu
00:00:00.000 : :1
00:07:13.223 : :2
00:12:01.553 : :3
00:17:17.744 : :4
00:21:17.192 : :5
00:28:49.810 : :6
00:35:04.684 : :7
00:40:51.574 : :8
00:46:32.498 : :9
00:52:04.996 : :10
01:00:59.197 : :11
01:06:50.255 : :12
01:11:07.637 : :13
01:17:21.094 : :14
01:26:55.210 : :15
01:33:01.492 : :16
01:42:55.877 : :17
01:50:01.552 : :18
01:54:56.221 : :19
01:58:37.984 : :20
Скачать раздачу

Просто зарегистрируйтесь и качайте на максимальной скорости (до 100 мбит/с)!

Обратите внимание, что локальная скорость может быть достинута лишь у абонентов интернет-провайдеров Ивановской области. Если вы не являетесь жителем Ивановской области (не подключены к местным стационарным интернет-провайдерам), скорость скачивания с ресурса у вас будет обычной, согласно вашему тарифному плану. Если же вы хотите использовать весь спектр возможностей ресурса - регистрация является обязательной, ведь это так просто!

 
▲ Наверх