Загрузка...
Ошибка

(Heavy Metal) King Diamond - Songs For The Dead - Live [2019, Blu-ray Custom]

Ответить на тему

Kelerva

0  
King Diamond - Songs For The Dead - Live
-Исполнитель: King Diamond
Наименование: Songs For The Dead - Live
Год выпуска: January 25th, 2019
Страна: Dallas, Texas, United States / Sweden
Жанр: Heavy Metal
Номер по каталогу: 155880
Продолжительность: 02:49:28
Перевод: Отсутствует
Релизер (Источник): (rutracker.org) oleg-1937-Режиссер / лейбл: Metal Blade Records-Описание: Издание содержит два полных концерта King Diamond, которые состоялись 17 июня 2016 года на Graspop Metal Meeting в Десселе (Бельгия) и 25 ноября 2015 года в The Fillmore в Филадельфии (штат Пенсильвания). Массовая, мультикамерная съёмка в Филадельфии была сделана Дениз Корики.-

Live At The Fillmore In Philadelphia - November 25, 2015

1. Out from the Asylum
2. Welcome Home
3. Sleepless Nights
4. Eye of the Witch
5. Halloween
6. Melissa (Mercyful Fate Cover)
7. Come to the Sabbath (Mercyful Fate Cover)
8. Them
9. Funeral
10. Arrival
11. A Mansion in Darkness
12. The Family Ghost
13. The 7th Day of July 1777
14. Omens
15. The Possession
16. Abigail
17. Black Horsemen
18. Insanity

Live At Graspop Metal Meeting - June 17, 2016

1. Out from the Asylum
2. Welcome Home
3. Sleepless Nights
4. Eye of the Witch
5. Halloween
6. Melissa (Mercyful Fate Cover)
7. Come to the Sabbath (Mercyful Fate Cover)
8. Them
9. Funeral
10. Arrival
11. A Mansion in Darkness
12. The Family Ghost
13. The 7th Day of July 1777
14. Omens
15. The Possession
16. Abigail
17. Black Horsemen
18. Insanity

Принимали участие

King Diamond - Vocals, Keyboards
Andy LaRocque - Guitars, Keyboards
Pontus Egberg - Bass
Livia Zita - Vocals (additional)
Mike Wead - Guitars
Matt Thompson - Drums

Тех. данные

Качество: Blu-ray Custom
Контейнер: BDMV
Видео кодек: MPEG2
Аудио кодек: PCM
Видео: 30,3 Мбит/сек: 1920 х 1080: 16:9: 23,976 (24000/1001) кадра/сек
Аудио: PCM, 1536 Кбит/сек: 2 каналов: 48,0 КГц English
Cубтитры: нет

Mediainfo

Общее
Идентификатор : 0 (0x0)
Полное имя : D:\Фильмы\King Diamond - Songs for the Dead - Live (LPCM)\BDMV\STREAM\00000.m2ts
Формат : BDAV
Формат/Информация : Blu-ray Video
Размер файла : 19,5 Гбайт
Продолжительность : 1 ч. 24 м.
Режим общего битрейта : Переменный
Общий поток : 33,2 Мбит/сек
Максимальный общий битрейт : 48,0 Мбит/сек
Видео
Идентификатор : 4113 (0x1011)
Идентификатор меню : 1 (0x1)
Формат : MPEG Video
Версия формата : Version 2
Профиль формата : [email protected]
Настройки формата : BVOP
Параметр BVOP формата : Да
Параметр матрицы формата : По умолчанию
Параметр GOP формата : M=3, N=12
Идентификатор кодека : 2
Продолжительность : 1 ч. 24 м.
Вид битрейта : Переменный
Битрейт : 30,3 Мбит/сек
Максимальный битрейт : 35,0 Мбит/сек
Ширина : 1920 пикселей
Высота : 1080 пикселей
Соотношение сторон : 16:9
Частота кадров : 23,976 (24000/1001) кадра/сек
Цветовое пространство : YUV
Субдискретизация насыщенности : 4:2:0
Битовая глубина : 8 бит
Тип развёртки : Прогрессивная
Метод сжатия : С потерями
Бит/(Пиксели*Кадры) : 0.610
Временной код первого кадра : 00:00:00:00
Оригинал временного кода : Group of pictures header
GOP, открыто/закрыто : Закрыто
Размер потока : 17,8 Гбайт (91%)
Аудио
Идентификатор : 4352 (0x1100)
Идентификатор меню : 1 (0x1)
Формат : PCM
Настройки формата : Big / Signed
Режим смешивания : Blu-ray
Идентификатор кодека : 128
Продолжительность : 1 ч. 24 м.
Вид битрейта : Постоянный
Битрейт : 1536 Кбит/сек
Каналы : 2 канала
Channel layout : L R
Частота : 48,0 КГц
Битовая глубина : 16 бит
Размер потока : 924 Мбайт (5%)
Язык : English
Общее
Идентификатор : 0 (0x0)
Полное имя : D:\Фильмы\King Diamond - Songs for the Dead - Live (LPCM)\BDMV\STREAM\00001.m2ts
Формат : BDAV
Формат/Информация : Blu-ray Video
Размер файла : 18,5 Гбайт
Продолжительность : 1 ч. 25 м.
Режим общего битрейта : Переменный
Общий поток : 31,0 Мбит/сек
Максимальный общий битрейт : 48,0 Мбит/сек
Видео
Идентификатор : 4113 (0x1011)
Идентификатор меню : 1 (0x1)
Формат : MPEG Video
Версия формата : Version 2
Профиль формата : [email protected]
Настройки формата : BVOP
Параметр BVOP формата : Да
Параметр матрицы формата : По умолчанию
Параметр GOP формата : M=3, N=12
Идентификатор кодека : 2
Продолжительность : 1 ч. 25 м.
Вид битрейта : Переменный
Битрейт : 28,2 Мбит/сек
Максимальный битрейт : 29,3 Мбит/сек
Ширина : 1920 пикселей
Высота : 1080 пикселей
Соотношение сторон : 16:9
Частота кадров : 23,976 (24000/1001) кадра/сек
Цветовое пространство : YUV
Субдискретизация насыщенности : 4:2:0
Битовая глубина : 8 бит
Тип развёртки : Прогрессивная
Метод сжатия : С потерями
Бит/(Пиксели*Кадры) : 0.567
Временной код первого кадра : 00:00:00:00
Оригинал временного кода : Group of pictures header
GOP, открыто/закрыто : Закрыто
Размер потока : 16,8 Гбайт (91%)
Аудио
Идентификатор : 4352 (0x1100)
Идентификатор меню : 1 (0x1)
Формат : PCM
Настройки формата : Big / Signed
Режим смешивания : Blu-ray
Идентификатор кодека : 128
Продолжительность : 1 ч. 25 м.
Вид битрейта : Постоянный
Битрейт : 1536 Кбит/сек
Каналы : 2 канала
Channel layout : L R
Частота : 48,0 КГц
Битовая глубина : 16 бит
Размер потока : 938 Мбайт (5%)
Язык : English

Меню

Скриншоты



Прошу обратить внимание на то, что весь материал, представленный выше, предназначен исключительно для ознакомления!
Приобретайте, легальные диски, которые станут достойным украшением вашей коллекции!
Скачать раздачу

Просто зарегистрируйтесь и качайте на максимальной скорости (до 100 мбит/с)!

Обратите внимание, что локальная скорость может быть достинута лишь у абонентов интернет-провайдеров Ивановской области. Если вы не являетесь жителем Ивановской области (не подключены к местным стационарным интернет-провайдерам), скорость скачивания с ресурса у вас будет обычной, согласно вашему тарифному плану. Если же вы хотите использовать весь спектр возможностей ресурса - регистрация является обязательной, ведь это так просто!

 
▲ Наверх