Загрузка...
Ошибка

(Rock / документальный) Queen - Days Of Our Lives [2011 г., HDTVRip]

Ответить на тему

Ingvarr

0  
Queen: Days Of Our Lives
-Год выпуска: 2011
Страна: Великобритания
Жанр: Rock, документальный
Продолжительность: 00:59:28 + 00:59:27
Перевод: русский любительский одноголосый ( j.p.scaramouche)
Описание:Официальная биография легендарных Queen для BBC, приуроченная к 40-летнему юбилею группы. Примечательна тем, что ее созданием и производством заведовали непосредственно Queen Productions, что дает нам десятки минут редких интервью Фредди Меркьюри и Джона Дикона в отреставрированном HD, интересные (BBC всюду ставит плашку 'unseen', что не всегда справедливо) нарезки студийных сессий и комментарии людей, имевших к группе непосредственное отношение - с Брайаном Мэем и Роджером Тейлором во главе.-Рип c: http://rutracker.org/forum/viewtopic.php?t=3603578
Качество: HDTVRip
Формат: AVI
Видео кодек: XviD
Аудио кодек: MP3
Видео: XviD, 720x400 (16:9), 1987 Kbps, 25.000 fps
Аудио: MP3, 192 kbps, 44,1KHz, 2ch

Mediainfo

General
Format : AVI
Format/Info : Audio Video Interleave
File size : 931 MiB
Duration : 59mn 28s
Overall bit rate : 2 189 Kbps
Writing application : VirtualDubMod 1.5.10.2 (build 2540/release)
Writing library : VirtualDubMod build 2540/release
Video
ID : 0
Format : MPEG-4 Visual
Format profile : Advanced [email protected]
Format settings, BVOP : 2
Format settings, QPel : No
Format settings, GMC : No warppoints
Format settings, Matrix : Default (H.263)
Codec ID : XVID
Codec ID/Hint : XviD
Duration : 59mn 28s
Bit rate : 1 987 Kbps
Width : 720 pixels
Height : 400 pixels
Display aspect ratio : 16:9
Frame rate : 25.000 fps
Color space : YUV
Chroma subsampling : 4:2:0
Bit depth : 8 bits
Scan type : Progressive
Compression mode : Lossy
Bits/(Pixel*Frame) : 0.276
Stream size : 845 MiB (91%)
Writing library : XviD 1.2.1 (UTC 2008-12-04)
Audio
ID : 1
Format : MPEG Audio
Format version : Version 1
Format profile : Layer 3
Codec ID : 55
Codec ID/Hint : MP3
Duration : 59mn 28s
Bit rate mode : Constant
Bit rate : 192 Kbps
Channel(s) : 2 channels
Sampling rate : 44.1 KHz
Compression mode : Lossy
Stream size : 81.7 MiB (9%)
Alignment : Split accross interleaves
Interleave, duration : 40 ms (1.00 video frame)
Interleave, preload duration : 500 ms
Writing library : LAME3.98r
Encoding settings : -m s -V 4 -q 3 -lowpass 18.6 -b 192

Скриншоты








Скачать раздачу

Просто зарегистрируйтесь и качайте на максимальной скорости (до 100 мбит/с)!

Обратите внимание, что локальная скорость может быть достинута лишь у абонентов интернет-провайдеров Ивановской области. Если вы не являетесь жителем Ивановской области (не подключены к местным стационарным интернет-провайдерам), скорость скачивания с ресурса у вас будет обычной, согласно вашему тарифному плану. Если же вы хотите использовать весь спектр возможностей ресурса - регистрация является обязательной, ведь это так просто!

 
▲ Наверх