Загрузка...
Ошибка

(Enigmatic / Europe Newage / Ethnic Fusion) ENIGMA - MCMXC a.D. - The Complete Album [1990 г., DVDRip]

Ответить на тему

Вектор

0  
Enigma - MCMXC a.D. -The Complete Album- Год выпуска: 1990
Страна: Germany
Жанр: Enigmatic / Newage / Ethnic Fusion
Продолжительность:
Перевод: Отсутствует-Режиссер: Howard Greenhalgh
Продюсер: Megan Hollister
Источник
Трэклист:
I. The Voice Of Enigma
II. Principles Of Lust
A: Sadeness
B: Find Love
C: Sadeness (Reprise)
III. Callas Went Away
IV. Mea Culpa
V. The Voice & The Snake
VI. Knocking On Forbidden Doors
VII. Back To The Rivers Of Belief
A: Hallelujah
B: The River Of Belief-Качество: DVDRip
Формат: AVI
Видео кодек: XviD
Аудио кодек: AC3
Видео: XviD, 1979 kb/s, 720x544 (1.32:1), 25.000 fps, 0.202 bits/pixel
Аудио: AC3, 448 Кбит/сек: 6 канала(ов), 48,0 КГц
Размер: 700.17 MB

Полная тех. информация о медиафайле

Format : AVI
Format/Info : Audio Video Interleave
File size : 700 MiB
Duration : 40mn 15s
Overall bit rate : 2 431 Kbps
Writing application : VirtualDubMod 1.5.4.1 (build 2178/release)
Writing library : VirtualDubMod build 2178/release
Video
ID : 0
Format : MPEG-4 Visual
Format profile : Advanced [email protected]
Format settings, BVOP : Yes
Format settings, QPel : No
Format settings, GMC : No warppoints
Format settings, Matrix : Custom
Codec ID : XVID
Codec ID/Hint : XviD
Duration : 40mn 15s
Bit rate : 1 977 Kbps
Width : 720 pixels
Height : 544 pixels
Display aspect ratio : 4:3
Frame rate : 25.000 fps
Resolution : 8 bits
Colorimetry : 4:2:0
Scan type : Progressive
Bits/(Pixel*Frame) : 0.202
Stream size : 569 MiB (81%)
Writing library : XviD 1.1.0 Beta2 (UTC 2005-04-04)
Audio
ID : 1
Format : AC-3
Format/Info : Audio Coding 3
Codec ID : 2000
Duration : 40mn 10s
Bit rate mode : Constant
Bit rate : 448 Kbps
Channel(s) : 6 channels
Channel positions : Front: L C R, Surround: L R, LFE
Sampling rate : 48.0 KHz
Stream size : 129 MiB (18%)
Alignment : Aligned on interleaves
Interleave, duration : 96 ms (2.41 video frames)
Interleave, preload duration : 96 ms
Language : Unknown language

О проекте ``Enigma``

Источник: Last.FM
Enigma — это музыкальный проект, запущенный Майклом Крету (англ. Michael Cretu, Мишелем Крету, — настоящее румынское имя) и его женой Сандрой Крету (англ. Sandra Cretu) в 1990 году, Германия. Майкл является композитором и продюсером, Сандра часто исполняла вокальные партии на треках Энигмы. Пара также работала вместе над проектом под названием Sandra. В рамках проекта Энигма выпущено семь студийных альбомов.
Композиции Enigma описываются как «музыкальные произведения, едва ли имеющие что-то общее с обычной музыкой и общепринятыми представлениями о ней» и «сравнительно новый коллаж звуков, ритма и чувств». Крету совмещает мировые музыкальные направления, сливая все треки в единое произведение, заставляя каждого слушателя воспринимать музыку по-своему. «Никакие слова не могут объяснить музыку. Музыка объясняет себя. Слова и звуки — подобны лучам прожектора. Они не показывают вам всего. Вы должны увидеть то, что находится между потоками света» (М.Крету).
Мишель проживает на острове Ибица, Испания. Он владеет студией «A.R.T. Studios», расположенной в его особняке, на этой студии были записаны 5 альбомов проекта Enigma. По контракту с Virgin Records, Мишель должен выпустить в общей сложности восемь альбомов по одному каждые три года. Поэтому, последний альбом должен выйти в 2012 году.
Последний на сегодня альбом «Seven Lives Many Faces» выпущен 19 сентября 2008 года. Для его создания Крету использовал ультрасовременную мобильную студию «Алхимик».
Официальный сайт проекта: www.enigmaspace.com
Участники проекта:
* Мишель Крету, основатель проекта. Создаёт всю музыку и занимается продюсированием. Делает большую часть ремиксов и пишет аранжировки для приглашённых вокалистов.
* Фрэнк Петерсон (Frank Peterson) — помогал в создании первого альбома. Видимо ему принадлежит идея использования григорианских хоралов в музыке проекта. Поcле ухода из Enigma создал собственный популярный проект Gregorian.
* Дэвид Фэйрстейн (David Fairstein) — участвовал в создании первых двух альбомов.
* Питер Корнелиус (Peter Cornelius), австрийский певец и композитор. Создал несколько гитарных соло для второго и третьего альбомов.
* Йенс Гад (Jens Gad), певец, продюсер, гитарист, помогал Крету в технических вопросах. Исполнил большинство гитарных партий в The Cross of Changes и на последующих альбомах, автор большинства клубных ремиксов на синглах. В ходе работы над альбомом «A Posteriori» покинул проект. В своих интервью Крету отрицает роль Гада как сопродюсера проекта.
Andru Donalds
Ruth-Ann Boyle
Более подробная информация изложена в Википедии

Скриншоты:

     
Скачать раздачу

Просто зарегистрируйтесь и качайте на максимальной скорости (до 100 мбит/с)!

Обратите внимание, что локальная скорость может быть достинута лишь у абонентов интернет-провайдеров Ивановской области. Если вы не являетесь жителем Ивановской области (не подключены к местным стационарным интернет-провайдерам), скорость скачивания с ресурса у вас будет обычной, согласно вашему тарифному плану. Если же вы хотите использовать весь спектр возможностей ресурса - регистрация является обязательной, ведь это так просто!

 
▲ Наверх