Загрузка...
Ошибка

(Pop) Mylene Farmer. Сборник видеоклипов (47 шт.) [1984-2009 г., DVDRip]

Ответить на тему

Вектор

0  
Mylene Farmer. Сборник видеоклипов (47 шт.) Год выпуска: 1984-2009
Страна: France
Жанр: Pop
Продолжительность: указ. ниже
Перевод: Отсутствует
Описание: Сборник клипов Mylene Farmer в DVD качестве.
Дополнительно:
На сегодня 47 штук. Представлено только официальное видео!
Файлы в раздаче поддерживаются DVD проигрывателями.
Все клипы приведены к единому формату по типу файла и видеокодеку.
Источник.
Качество: DVDRip
Формат: AVI
Видео кодек: DivX
Аудио кодек: MP3
Видео: DivX 25 fps
Аудио: 48.0 kHz, 2ch, 256 kbps, MPEG Layer 3

Подробная информация о клипах

A quoi je sers 1989

Продолжительность: 4:55
Видео: 720x428 ~1600 kbps

Полная тех. информация о медиафайле

Format : DivX
Format/Info : Hack of AVI
File size : 65.6 MiB
Duration : 4mn 55s
Overall bit rate : 1 864 Kbps
Video
ID : 0
Format : MPEG-4 Visual
Format settings, BVOP : Yes
Format settings, QPel : No
Format settings, GMC : No warppoints
Format settings, Matrix : Default (H.263)
Muxing mode : Packed bitstream
Codec ID : DX50
Codec ID/Hint : DivX 5
Duration : 4mn 55s
Bit rate : 1 599 Kbps
Width : 720 pixels
Height : 428 pixels
Display aspect ratio : 1.682
Frame rate : 25.000 fps
Resolution : 8 bits
Colorimetry : 4:2:0
Scan type : Progressive
Bits/(Pixel*Frame) : 0.208
Stream size : 56.3 MiB (86%)
Title : Video
Writing library : DivX 6.2.5 (UTC 2006-06-16)
Audio
ID : 1
Format : MPEG Audio
Format version : Version 1
Format profile : Layer 3
Codec ID : 55
Codec ID/Hint : MP3
Duration : 4mn 55s
Bit rate mode : Constant
Bit rate : 256 Kbps
Channel(s) : 2 channels
Sampling rate : 48.0 KHz
Stream size : 9.01 MiB (14%)
Alignment : Split accross interleaves
Interleave, duration : 40 ms (1.00 video frame)
Interleave, preload duration : 50 ms
Title : Audio
 

Ainsi soit-je... 1988

Продолжительность: 5:19
Видео: 720x304 ~1200 kbps

Полная тех. информация о медиафайле

Format : DivX
Format/Info : Hack of AVI
File size : 55.7 MiB
Duration : 5mn 19s
Overall bit rate : 1 464 Kbps
Video
ID : 0
Format : MPEG-4 Visual
Format settings, BVOP : Yes
Format settings, QPel : No
Format settings, GMC : No warppoints
Format settings, Matrix : Default (H.263)
Muxing mode : Packed bitstream
Codec ID : DX50
Codec ID/Hint : DivX 5
Duration : 5mn 19s
Bit rate : 1 199 Kbps
Width : 720 pixels
Height : 304 pixels
Display aspect ratio : 2.35:1
Frame rate : 25.000 fps
Resolution : 8 bits
Colorimetry : 4:2:0
Scan type : Progressive
Bits/(Pixel*Frame) : 0.219
Stream size : 45.6 MiB (82%)
Title : Video
Writing library : DivX 6.2.5 (UTC 2006-06-16)
Audio
ID : 1
Format : MPEG Audio
Format version : Version 1
Format profile : Layer 3
Codec ID : 55
Codec ID/Hint : MP3
Duration : 5mn 19s
Bit rate mode : Constant
Bit rate : 256 Kbps
Channel(s) : 2 channels
Sampling rate : 48.0 KHz
Stream size : 9.74 MiB (17%)
Alignment : Split accross interleaves
Interleave, duration : 40 ms (1.00 video frame)
Interleave, preload duration : 50 ms
Title : Audio
 

Ainsi soit-je (Live) 1996

Продолжительность: 5:04
Видео: 729x408 ~1600 kbps

Полная тех. информация о медиафайле

Format : DivX
Format/Info : Hack of AVI
File size : 67.7 MiB
Duration : 5mn 4s
Overall bit rate : 1 867 Kbps
Video
ID : 0
Format : MPEG-4 Visual
Format settings, BVOP : Yes
Format settings, QPel : No
Format settings, GMC : No warppoints
Format settings, Matrix : Default (H.263)
Muxing mode : Packed bitstream
Codec ID : DX50
Codec ID/Hint : DivX 5
Duration : 5mn 4s
Bit rate : 1 601 Kbps
Width : 720 pixels
Height : 408 pixels
Display aspect ratio : 16:9
Frame rate : 25.000 fps
Resolution : 8 bits
Colorimetry : 4:2:0
Scan type : Progressive
Bits/(Pixel*Frame) : 0.218
Stream size : 58.1 MiB (86%)
Title : Video
Writing library : DivX 6.2.5 (UTC 2006-06-16)
Audio
ID : 1
Format : MPEG Audio
Format version : Version 1
Format profile : Layer 3
Codec ID : 55
Codec ID/Hint : MP3
Duration : 5mn 4s
Bit rate mode : Constant
Bit rate : 256 Kbps
Channel(s) : 2 channels
Sampling rate : 48.0 KHz
Stream size : 9.29 MiB (14%)
Alignment : Split accross interleaves
Interleave, duration : 40 ms (1.00 video frame)
Interleave, preload duration : 50 ms
Title : Audio
 

Allan (Live) 1989

Продолжительность: 5:44
Видео: 720x416 ~1600 kbps

Полная тех. информация о медиафайле

Format : DivX
Format/Info : Hack of AVI
File size : 76.7 MiB
Duration : 5mn 44s
Overall bit rate : 1 869 Kbps
Video
ID : 0
Format : MPEG-4 Visual
Format settings, BVOP : Yes
Format settings, QPel : No
Format settings, GMC : No warppoints
Format settings, Matrix : Default (H.263)
Muxing mode : Packed bitstream
Codec ID : DX50
Codec ID/Hint : DivX 5
Duration : 5mn 44s
Bit rate : 1 604 Kbps
Width : 720 pixels
Height : 416 pixels
Display aspect ratio : 16:9
Frame rate : 25.000 fps
Resolution : 8 bits
Colorimetry : 4:2:0
Scan type : Progressive
Bits/(Pixel*Frame) : 0.214
Stream size : 65.8 MiB (86%)
Title : Video
Writing library : DivX 6.2.5 (UTC 2006-06-16)
Audio
ID : 1
Format : MPEG Audio
Format version : Version 1
Format profile : Layer 3
Codec ID : 55
Codec ID/Hint : MP3
Duration : 5mn 44s
Bit rate mode : Constant
Bit rate : 256 Kbps
Channel(s) : 2 channels
Sampling rate : 48.0 KHz
Stream size : 10.5 MiB (14%)
Alignment : Split accross interleaves
Interleave, duration : 40 ms (1.00 video frame)
Interleave, preload duration : 50 ms
Title : Audio
 

Appelle Mon Numero 2008

Продолжительность: 4:35
Видео: 720x392 ~1500 kbps

Полная тех. информация о медиафайле

Format : DivX
Format/Info : Hack of AVI
File size : 57.9 MiB
Duration : 4mn 35s
Overall bit rate : 1 765 Kbps
Video
ID : 0
Format : MPEG-4 Visual
Format settings, BVOP : Yes
Format settings, QPel : No
Format settings, GMC : No warppoints
Format settings, Matrix : Default (H.263)
Muxing mode : Packed bitstream
Codec ID : DX50
Codec ID/Hint : DivX 5
Duration : 4mn 35s
Bit rate : 1 499 Kbps
Width : 720 pixels
Height : 392 pixels
Display aspect ratio : 16:9
Frame rate : 25.000 fps
Resolution : 8 bits
Colorimetry : 4:2:0
Scan type : Progressive
Bits/(Pixel*Frame) : 0.212
Stream size : 49.2 MiB (85%)
Title : Video
Writing library : DivX 6.2.5 (UTC 2006-06-16)
Audio
ID : 1
Format : MPEG Audio
Format version : Version 1
Format profile : Layer 3
Codec ID : 55
Codec ID/Hint : MP3
Duration : 4mn 35s
Bit rate mode : Constant
Bit rate : 256 Kbps
Channel(s) : 2 channels
Sampling rate : 48.0 KHz
Stream size : 8.39 MiB (15%)
Alignment : Split accross interleaves
Interleave, duration : 40 ms (1.00 video frame)
Interleave, preload duration : 50 ms
Title : Audio
 

Appelle Mon Numero 2 2008

Продолжительность: 5:17
Видео: 720x392 ~1500 kbps

Полная тех. информация о медиафайле

Format : DivX
Format/Info : Hack of AVI
File size : 66.6 MiB
Duration : 5mn 17s
Overall bit rate : 1 762 Kbps
Video
ID : 0
Format : MPEG-4 Visual
Format settings, BVOP : Yes
Format settings, QPel : No
Format settings, GMC : No warppoints
Format settings, Matrix : Default (H.263)
Muxing mode : Packed bitstream
Codec ID : DX50
Codec ID/Hint : DivX 5
Duration : 5mn 17s
Bit rate : 1 497 Kbps
Width : 720 pixels
Height : 392 pixels
Display aspect ratio : 16:9
Frame rate : 25.000 fps
Resolution : 8 bits
Colorimetry : 4:2:0
Scan type : Progressive
Bits/(Pixel*Frame) : 0.212
Stream size : 56.6 MiB (85%)
Title : Video
Writing library : DivX 6.2.5 (UTC 2006-06-16)
Audio
ID : 1
Format : MPEG Audio
Format version : Version 1
Format profile : Layer 3
Codec ID : 55
Codec ID/Hint : MP3
Duration : 5mn 17s
Bit rate mode : Constant
Bit rate : 256 Kbps
Channel(s) : 2 channels
Sampling rate : 48.0 KHz
Stream size : 9.68 MiB (15%)
Alignment : Split accross interleaves
Interleave, duration : 40 ms (1.00 video frame)
Interleave, preload duration : 50 ms
Title : Audio
 

Beyond My Control 1992

Продолжительность: 4:58
Видео: 720x384 ~1500 kbps

Полная тех. информация о медиафайле

Format : DivX
Format/Info : Hack of AVI
File size : 62.7 MiB
Duration : 4mn 58s
Overall bit rate : 1 764 Kbps
Video
ID : 0
Format : MPEG-4 Visual
Format settings, BVOP : Yes
Format settings, QPel : No
Format settings, GMC : No warppoints
Format settings, Matrix : Default (H.263)
Muxing mode : Packed bitstream
Codec ID : DX50
Codec ID/Hint : DivX 5
Duration : 4mn 58s
Bit rate : 1 498 Kbps
Width : 720 pixels
Height : 384 pixels
Display aspect ratio : 1.875
Frame rate : 25.000 fps
Resolution : 8 bits
Colorimetry : 4:2:0
Scan type : Progressive
Bits/(Pixel*Frame) : 0.217
Stream size : 53.2 MiB (85%)
Title : Video
Writing library : DivX 6.2.5 (UTC 2006-06-16)
Audio
ID : 1
Format : MPEG Audio
Format version : Version 1
Format profile : Layer 3
Codec ID : 55
Codec ID/Hint : MP3
Duration : 4mn 58s
Bit rate mode : Constant
Bit rate : 256 Kbps
Channel(s) : 2 channels
Sampling rate : 48.0 KHz
Stream size : 9.10 MiB (15%)
Alignment : Split accross interleaves
Interleave, duration : 40 ms (1.00 video frame)
Interleave, preload duration : 50 ms
Title : Audio
 

California 1996

Продолжительность: 5:08
Видео: 720x540 ~2100 kbps

Полная тех. информация о медиафайле

Format : DivX
Format/Info : Hack of AVI
File size : 87.1 MiB
Duration : 5mn 8s
Overall bit rate : 2 366 Kbps
Video
ID : 0
Format : MPEG-4 Visual
Format settings, BVOP : Yes
Format settings, QPel : No
Format settings, GMC : No warppoints
Format settings, Matrix : Default (H.263)
Muxing mode : Packed bitstream
Codec ID : DX50
Codec ID/Hint : DivX 5
Duration : 5mn 8s
Bit rate : 2 100 Kbps
Width : 720 pixels
Height : 540 pixels
Display aspect ratio : 4:3
Frame rate : 25.000 fps
Resolution : 8 bits
Colorimetry : 4:2:0
Scan type : Progressive
Bits/(Pixel*Frame) : 0.216
Stream size : 77.3 MiB (89%)
Title : Video
Writing library : DivX 6.2.5 (UTC 2006-06-16)
Audio
ID : 1
Format : MPEG Audio
Format version : Version 1
Format profile : Layer 3
Codec ID : 55
Codec ID/Hint : MP3
Duration : 5mn 8s
Bit rate mode : Constant
Bit rate : 256 Kbps
Channel(s) : 2 channels
Sampling rate : 48.0 KHz
Stream size : 9.42 MiB (11%)
Alignment : Split accross interleaves
Interleave, duration : 40 ms (1.00 video frame)
Interleave, preload duration : 50 ms
Title : Audio
 

C`est dans l`air 2009

Продолжительность: 3:45
Видео: 720x400 ~1600 kbps

Полная тех. информация о медиафайле

Format : AVI
Format/Info : Audio Video Interleave
File size : 96.6 MiB
Duration : 3mn 45s
Overall bit rate : 3 597 Kbps
Writing application : VirtualDubMod 1.5.10.2 (build 2540/release)
Writing library : VirtualDubMod build 2540/release
Video
ID : 0
Format : MPEG-4 Visual
Format profile : Advanced [email protected]
Format settings, BVOP : Yes
Format settings, QPel : No
Format settings, GMC : No warppoints
Format settings, Matrix : Default (H.263)
Codec ID : XVID
Codec ID/Hint : XviD
Duration : 3mn 45s
Bit rate : 3 331 Kbps
Width : 720 pixels
Height : 400 pixels
Display aspect ratio : 16:9
Frame rate : 25.000 fps
Resolution : 8 bits
Colorimetry : 4:2:0
Scan type : Progressive
Bits/(Pixel*Frame) : 0.463
Stream size : 89.4 MiB (93%)
Writing library : XviD 1.2.0.dev47 (UTC 2006-11-01)
Audio
ID : 1
Format : MPEG Audio
Format version : Version 1
Format profile : Layer 3
Codec ID : 55
Codec ID/Hint : MP3
Duration : 3mn 45s
Bit rate mode : Constant
Bit rate : 256 Kbps
Channel(s) : 2 channels
Sampling rate : 48.0 KHz
Stream size : 6.87 MiB (7%)
Alignment : Aligned on interleaves
Interleave, duration : 40 ms (1.00 video frame)
Interleave, preload duration : 504 ms
Writing library : LAME3.97
Encoding settings : -m s -V 4 -q 2 -lowpass 19.7
 

C`est dans l`air (Live) 2009

Продолжительность: 4:38
Видео: 720x404 ~1800 kbps

Полная тех. информация о медиафайле

Format : DivX
Format/Info : Hack of AVI
File size : 56.1 MiB
Duration : 4mn 12s
Overall bit rate : 1 862 Kbps
Video
ID : 0
Format : MPEG-4 Visual
Format settings, BVOP : Yes
Format settings, QPel : No
Format settings, GMC : No warppoints
Format settings, Matrix : Default (H.263)
Muxing mode : Packed bitstream
Codec ID : DX50
Codec ID/Hint : DivX 5
Duration : 4mn 12s
Bit rate : 1 597 Kbps
Width : 720 pixels
Height : 392 pixels
Display aspect ratio : 16:9
Frame rate : 25.000 fps
Resolution : 8 bits
Colorimetry : 4:2:0
Scan type : Progressive
Bits/(Pixel*Frame) : 0.226
Stream size : 48.1 MiB (86%)
Title : Video
Writing library : DivX 6.2.5 (UTC 2006-06-16)
Audio
ID : 1
Format : MPEG Audio
Format version : Version 1
Format profile : Layer 3
Codec ID : 55
Codec ID/Hint : MP3
Duration : 4mn 12s
Bit rate mode : Constant
Bit rate : 256 Kbps
Channel(s) : 2 channels
Sampling rate : 48.0 KHz
Stream size : 7.71 MiB (14%)
Alignment : Split accross interleaves
Interleave, duration : 40 ms (1.00 video frame)
Interleave, preload duration : 50 ms
Title : Audio
 

C`est une belle journee 2002

Продолжительность: 4:12
Видео: 720x392 ~1600 kbps

Полная тех. информация о медиафайле

Format : DivX
Format/Info : Hack of AVI
File size : 56.1 MiB
Duration : 4mn 12s
Overall bit rate : 1 862 Kbps
Video
ID : 0
Format : MPEG-4 Visual
Format settings, BVOP : Yes
Format settings, QPel : No
Format settings, GMC : No warppoints
Format settings, Matrix : Default (H.263)
Muxing mode : Packed bitstream
Codec ID : DX50
Codec ID/Hint : DivX 5
Duration : 4mn 12s
Bit rate : 1 597 Kbps
Width : 720 pixels
Height : 392 pixels
Display aspect ratio : 16:9
Frame rate : 25.000 fps
Resolution : 8 bits
Colorimetry : 4:2:0
Scan type : Progressive
Bits/(Pixel*Frame) : 0.226
Stream size : 48.1 MiB (86%)
Title : Video
Writing library : DivX 6.2.5 (UTC 2006-06-16)
Audio
ID : 1
Format : MPEG Audio
Format version : Version 1
Format profile : Layer 3
Codec ID : 55
Codec ID/Hint : MP3
Duration : 4mn 12s
Bit rate mode : Constant
Bit rate : 256 Kbps
Channel(s) : 2 channels
Sampling rate : 48.0 KHz
Stream size : 7.71 MiB (14%)
Alignment : Split accross interleaves
Interleave, duration : 40 ms (1.00 video frame)
Interleave, preload duration : 50 ms
Title : Audio
 

C`est une belle journee (Live) 2002

Продолжительность: 4:02
Видео: 720x400 ~1600 kbps

Полная тех. информация о медиафайле

Format : DivX
Format/Info : Hack of AVI
File size : 54.1 MiB
Duration : 4mn 2s
Overall bit rate : 1 868 Kbps
Video
ID : 0
Format : MPEG-4 Visual
Format settings, BVOP : Yes
Format settings, QPel : No
Format settings, GMC : No warppoints
Format settings, Matrix : Default (H.263)
Muxing mode : Packed bitstream
Codec ID : DX50
Codec ID/Hint : DivX 5
Duration : 4mn 2s
Bit rate : 1 603 Kbps
Width : 720 pixels
Height : 400 pixels
Display aspect ratio : 16:9
Frame rate : 25.000 fps
Resolution : 8 bits
Colorimetry : 4:2:0
Scan type : Progressive
Bits/(Pixel*Frame) : 0.223
Stream size : 46.4 MiB (86%)
Title : Video
Writing library : DivX 6.2.5 (UTC 2006-06-16)
Audio
ID : 1
Format : MPEG Audio
Format version : Version 1
Format profile : Layer 3
Codec ID : 55
Codec ID/Hint : MP3
Duration : 4mn 2s
Bit rate mode : Constant
Bit rate : 256 Kbps
Channel(s) : 2 channels
Sampling rate : 48.0 KHz
Stream size : 7.41 MiB (14%)
Alignment : Split accross interleaves
Interleave, duration : 40 ms (1.00 video frame)
Interleave, preload duration : 50 ms
Title : Audio
 

Comme j'ai mal 1996

Продолжительность: 3:53
Видео: 720x540 ~2100 kbps

Полная тех. информация о медиафайле

Format : DivX
Format/Info : Hack of AVI
File size : 65.8 MiB
Duration : 3mn 53s
Overall bit rate : 2 366 Kbps
Video
ID : 0
Format : MPEG-4 Visual
Format settings, BVOP : Yes
Format settings, QPel : No
Format settings, GMC : No warppoints
Format settings, Matrix : Default (H.263)
Muxing mode : Packed bitstream
Codec ID : DX50
Codec ID/Hint : DivX 5
Duration : 3mn 53s
Bit rate : 2 100 Kbps
Width : 720 pixels
Height : 540 pixels
Display aspect ratio : 4:3
Frame rate : 25.000 fps
Resolution : 8 bits
Colorimetry : 4:2:0
Scan type : Progressive
Bits/(Pixel*Frame) : 0.216
Stream size : 58.4 MiB (89%)
Title : Video
Writing library : DivX 6.2.5 (UTC 2006-06-16)
Audio
ID : 1
Format : MPEG Audio
Format version : Version 1
Format profile : Layer 3
Codec ID : 55
Codec ID/Hint : MP3
Duration : 3mn 53s
Bit rate mode : Constant
Bit rate : 256 Kbps
Channel(s) : 2 channels
Sampling rate : 48.0 KHz
Stream size : 7.12 MiB (11%)
Alignment : Split accross interleaves
Interleave, duration : 40 ms (1.00 video frame)
Interleave, preload duration : 50 ms
Title : Audio
 

Degeneration 2009

Входит в The Farmer Project

Desenchantee 1991

Продолжительность: 9:24
Видео: 720x304 ~1200 kbps

Полная тех. информация о медиафайле

Format : DivX
Format/Info : Hack of AVI
File size : 98.7 MiB
Duration : 9mn 24s
Overall bit rate : 1 466 Kbps
Video
ID : 0
Format : MPEG-4 Visual
Format settings, BVOP : Yes
Format settings, QPel : No
Format settings, GMC : No warppoints
Format settings, Matrix : Default (H.263)
Muxing mode : Packed bitstream
Codec ID : DX50
Codec ID/Hint : DivX 5
Duration : 9mn 24s
Bit rate : 1 201 Kbps
Width : 720 pixels
Height : 304 pixels
Display aspect ratio : 2.35:1
Frame rate : 25.000 fps
Resolution : 8 bits
Colorimetry : 4:2:0
Scan type : Progressive
Bits/(Pixel*Frame) : 0.219
Stream size : 80.8 MiB (82%)
Title : Video
Writing library : DivX 6.2.5 (UTC 2006-06-16)
Audio
ID : 1
Format : MPEG Audio
Format version : Version 1
Format profile : Layer 3
Codec ID : 55
Codec ID/Hint : MP3
Duration : 9mn 24s
Bit rate mode : Constant
Bit rate : 256 Kbps
Channel(s) : 2 channels
Sampling rate : 48.0 KHz
Stream size : 17.2 MiB (17%)
Alignment : Split accross interleaves
Interleave, duration : 40 ms (1.00 video frame)
Interleave, preload duration : 50 ms
Title : Audio
 

Devant Soi (No Manicheisme Dou`s Remix Club) 2007

Продолжительность: 6:34
Видео: 720x300 ~1200 kbps

Полная тех. информация о медиафайле

Format : DivX
Format/Info : Hack of AVI
File size : 68.9 MiB
Duration : 6mn 34s
Overall bit rate : 1 464 Kbps
Video
ID : 0
Format : MPEG-4 Visual
Format settings, BVOP : Yes
Format settings, QPel : No
Format settings, GMC : No warppoints
Format settings, Matrix : Default (H.263)
Muxing mode : Packed bitstream
Codec ID : DX50
Codec ID/Hint : DivX 5
Duration : 6mn 34s
Bit rate : 1 198 Kbps
Width : 720 pixels
Height : 300 pixels
Display aspect ratio : 2.40:1
Frame rate : 25.000 fps
Resolution : 8 bits
Colorimetry : 4:2:0
Scan type : Progressive
Bits/(Pixel*Frame) : 0.222
Stream size : 56.4 MiB (82%)
Title : Video
Writing library : DivX 6.2.5 (UTC 2006-06-16)
Audio
ID : 1
Format : MPEG Audio
Format version : Version 1
Format profile : Layer 3
Codec ID : 55
Codec ID/Hint : MP3
Duration : 6mn 34s
Bit rate mode : Constant
Bit rate : 256 Kbps
Channel(s) : 2 channels
Sampling rate : 48.0 KHz
Stream size : 12.0 MiB (17%)
Alignment : Split accross interleaves
Interleave, duration : 40 ms (1.00 video frame)
Interleave, preload duration : 50 ms
Title : Audio
 

Fuck Them All 2005

Продолжительность: 4:53
Видео: 720x380 ~1500 kbps

Полная тех. информация о медиафайле

Format : DivX
Format/Info : Hack of AVI
File size : 61.8 MiB
Duration : 4mn 53s
Overall bit rate : 1 764 Kbps
Video
ID : 0
Format : MPEG-4 Visual
Format settings, BVOP : Yes
Format settings, QPel : No
Format settings, GMC : No warppoints
Format settings, Matrix : Default (H.263)
Muxing mode : Packed bitstream
Codec ID : DX50
Codec ID/Hint : DivX 5
Duration : 4mn 53s
Bit rate : 1 499 Kbps
Width : 720 pixels
Height : 380 pixels
Display aspect ratio : 1.895
Frame rate : 25.000 fps
Resolution : 8 bits
Colorimetry : 4:2:0
Scan type : Progressive
Bits/(Pixel*Frame) : 0.219
Stream size : 52.5 MiB (85%)
Title : Video
Writing library : DivX 6.2.5 (UTC 2006-06-16)
Audio
ID : 1
Format : MPEG Audio
Format version : Version 1
Format profile : Layer 3
Codec ID : 55
Codec ID/Hint : MP3
Duration : 4mn 53s
Bit rate mode : Constant
Bit rate : 256 Kbps
Channel(s) : 2 channels
Sampling rate : 48.0 KHz
Stream size : 8.96 MiB (15%)
Alignment : Split accross interleaves
Interleave, duration : 40 ms (1.00 video frame)
Interleave, preload duration : 50 ms
Title : Audio
 

Innamoramento 2000

Продолжительность: 5:52
Видео: 720x444 ~1700

Полная тех. информация о медиафайле

Format : DivX
Format/Info : Hack of AVI
File size : 82.5 MiB
Duration : 5mn 52s
Overall bit rate : 1 964 Kbps
Video
ID : 0
Format : MPEG-4 Visual
Format settings, BVOP : Yes
Format settings, QPel : No
Format settings, GMC : No warppoints
Format settings, Matrix : Default (H.263)
Muxing mode : Packed bitstream
Codec ID : DX50
Codec ID/Hint : DivX 5
Duration : 5mn 52s
Bit rate : 1 699 Kbps
Width : 720 pixels
Height : 424 pixels
Display aspect ratio : 1.698
Frame rate : 25.000 fps
Resolution : 8 bits
Colorimetry : 4:2:0
Scan type : Progressive
Bits/(Pixel*Frame) : 0.223
Stream size : 71.3 MiB (86%)
Title : Video
Writing library : DivX 6.2.5 (UTC 2006-06-16)
Audio
ID : 1
Format : MPEG Audio
Format version : Version 1
Format profile : Layer 3
Codec ID : 55
Codec ID/Hint : MP3
Duration : 5mn 52s
Bit rate mode : Constant
Bit rate : 256 Kbps
Channel(s) : 2 channels
Sampling rate : 48.0 KHz
Stream size : 10.8 MiB (13%)
Alignment : Split accross interleaves
Interleave, duration : 40 ms (1.00 video frame)
Interleave, preload duration : 50 ms
Title : Audio
 

Je t`aime melancolie 1991

Продолжительность: 5:10
Видео: 720x384 ~1500

Полная тех. информация о медиафайле

Format : DivX
Format/Info : Hack of AVI
File size : 65.2 MiB
Duration : 5mn 10s
Overall bit rate : 1 764 Kbps
Video
ID : 0
Format : MPEG-4 Visual
Format settings, BVOP : Yes
Format settings, QPel : No
Format settings, GMC : No warppoints
Format settings, Matrix : Default (H.263)
Muxing mode : Packed bitstream
Codec ID : DX50
Codec ID/Hint : DivX 5
Duration : 5mn 10s
Bit rate : 1 498 Kbps
Width : 720 pixels
Height : 384 pixels
Display aspect ratio : 1.875
Frame rate : 25.000 fps
Resolution : 8 bits
Colorimetry : 4:2:0
Scan type : Progressive
Bits/(Pixel*Frame) : 0.217
Stream size : 55.4 MiB (85%)
Title : Video
Writing library : DivX 6.2.5 (UTC 2006-06-16)
Audio
ID : 1
Format : MPEG Audio
Format version : Version 1
Format profile : Layer 3
Codec ID : 55
Codec ID/Hint : MP3
Duration : 5mn 10s
Bit rate mode : Constant
Bit rate : 256 Kbps
Channel(s) : 2 channels
Sampling rate : 48.0 KHz
Stream size : 9.46 MiB (15%)
Alignment : Split accross interleaves
Interleave, duration : 40 ms (1.00 video frame)
Interleave, preload duration : 50 ms
Title : Audio
 

Je te rends ton amour 1999

Продолжительность: 5:08
Видео: 720x312 ~1300 kbps

Полная тех. информация о медиафайле

Format : DivX
Format/Info : Hack of AVI
File size : 57.5 MiB
Duration : 5mn 8s
Overall bit rate : 1 565 Kbps
Video
ID : 0
Format : MPEG-4 Visual
Format settings, BVOP : Yes
Format settings, QPel : No
Format settings, GMC : No warppoints
Format settings, Matrix : Default (H.263)
Muxing mode : Packed bitstream
Codec ID : DX50
Codec ID/Hint : DivX 5
Duration : 5mn 8s
Bit rate : 1 299 Kbps
Width : 720 pixels
Height : 312 pixels
Display aspect ratio : 2.35:1
Frame rate : 25.000 fps
Resolution : 8 bits
Colorimetry : 4:2:0
Scan type : Progressive
Bits/(Pixel*Frame) : 0.231
Stream size : 47.7 MiB (83%)
Title : Video
Writing library : DivX 6.2.5 (UTC 2006-06-16)
Audio
ID : 1
Format : MPEG Audio
Format version : Version 1
Format profile : Layer 3
Codec ID : 55
Codec ID/Hint : MP3
Duration : 5mn 8s
Bit rate mode : Constant
Bit rate : 256 Kbps
Channel(s) : 2 channels
Sampling rate : 48.0 KHz
Stream size : 9.40 MiB (16%)
Alignment : Split accross interleaves
Interleave, duration : 40 ms (1.00 video frame)
Interleave, preload duration : 50 ms
Title : Audio
 

Je te rends ton amour 2 1999

Продолжительность: 5:02
Видео: 720x452 ~1700 kbps

Полная тех. информация о медиафайле

Format : DivX
Format/Info : Hack of AVI
File size : 68.6 MiB
Duration : 5mn 2s
Overall bit rate : 1 905 Kbps
Video
ID : 0
Format : MPEG-4 Visual
Format settings, BVOP : Yes
Format settings, QPel : No
Format settings, GMC : No warppoints
Format settings, Matrix : Default (H.263)
Muxing mode : Packed bitstream
Codec ID : DX50
Codec ID/Hint : DivX 5
Duration : 5mn 2s
Bit rate : 1 704 Kbps
Width : 720 pixels
Height : 452 pixels
Display aspect ratio : 1.593
Frame rate : 25.000 fps
Resolution : 8 bits
Colorimetry : 4:2:0
Scan type : Progressive
Bits/(Pixel*Frame) : 0.209
Stream size : 61.4 MiB (89%)
Title : Video
Writing library : DivX 6.2.5 (UTC 2006-06-16)
Audio
ID : 1
Format : MPEG Audio
Format version : Version 1
Format profile : Layer 3
Codec ID : 55
Codec ID/Hint : MP3
Duration : 5mn 2s
Bit rate mode : Constant
Bit rate : 192 Kbps
Channel(s) : 2 channels
Sampling rate : 44.1 KHz
Stream size : 6.92 MiB (10%)
Alignment : Split accross interleaves
Interleave, duration : 40 ms (1.00 video frame)
Interleave, preload duration : 50 ms
Title : Audio
 

La poupee qui fait non (avec Khaled) (Live)

Продолжительность: 4:29
Видео: 720x408 ~1600 kbps

Полная тех. информация о медиафайле

Format : DivX
Format/Info : Hack of AVI
File size : 59.9 MiB
Duration : 4mn 29s
Overall bit rate : 1 866 Kbps
Video
ID : 0
Format : MPEG-4 Visual
Format settings, BVOP : Yes
Format settings, QPel : No
Format settings, GMC : No warppoints
Format settings, Matrix : Default (H.263)
Muxing mode : Packed bitstream
Codec ID : DX50
Codec ID/Hint : DivX 5
Duration : 4mn 29s
Bit rate : 1 600 Kbps
Width : 720 pixels
Height : 408 pixels
Display aspect ratio : 16:9
Frame rate : 25.000 fps
Resolution : 8 bits
Colorimetry : 4:2:0
Scan type : Progressive
Bits/(Pixel*Frame) : 0.218
Stream size : 51.4 MiB (86%)
Title : Video
Writing library : DivX 6.2.5 (UTC 2006-06-16)
Audio
ID : 1
Format : MPEG Audio
Format version : Version 1
Format profile : Layer 3
Codec ID : 55
Codec ID/Hint : MP3
Duration : 4mn 29s
Bit rate mode : Constant
Bit rate : 256 Kbps
Channel(s) : 2 channels
Sampling rate : 48.0 KHz
Stream size : 8.22 MiB (14%)
Alignment : Split accross interleaves
Interleave, duration : 40 ms (1.00 video frame)
Interleave, preload duration : 50 ms
Title : Audio
 

L`Ame-Stram-Gram 1999

Продолжительность: 7:08
Видео: 720x396 ~1600 kbps

Полная тех. информация о медиафайле

Format : DivX
Format/Info : Hack of AVI
File size : 95.2 MiB
Duration : 7mn 8s
Overall bit rate : 1 865 Kbps
Video
ID : 0
Format : MPEG-4 Visual
Format settings, BVOP : Yes
Format settings, QPel : No
Format settings, GMC : No warppoints
Format settings, Matrix : Default (H.263)
Muxing mode : Packed bitstream
Codec ID : DX50
Codec ID/Hint : DivX 5
Duration : 7mn 8s
Bit rate : 1 599 Kbps
Width : 720 pixels
Height : 396 pixels
Display aspect ratio : 16:9
Frame rate : 25.000 fps
Resolution : 8 bits
Colorimetry : 4:2:0
Scan type : Progressive
Bits/(Pixel*Frame) : 0.224
Stream size : 81.7 MiB (86%)
Title : Video
Writing library : DivX 6.2.5 (UTC 2006-06-16)
Audio
ID : 1
Format : MPEG Audio
Format version : Version 1
Format profile : Layer 3
Codec ID : 55
Codec ID/Hint : MP3
Duration : 7mn 8s
Bit rate mode : Constant
Bit rate : 256 Kbps
Channel(s) : 2 channels
Sampling rate : 48.0 KHz
Stream size : 13.1 MiB (14%)
Alignment : Split accross interleaves
Interleave, duration : 40 ms (1.00 video frame)
Interleave, preload duration : 50 ms
Title : Audio
 

L`amour n`est rien 2006

Продолжительность: 3:41
Видео: 720x388 ~1500 kbps

Полная тех. информация о медиафайле

Format : DivX
Format/Info : Hack of AVI
File size : 46.6 MiB
Duration : 3mn 41s
Overall bit rate : 1 767 Kbps
Video
ID : 0
Format : MPEG-4 Visual
Format settings, BVOP : Yes
Format settings, QPel : No
Format settings, GMC : No warppoints
Format settings, Matrix : Default (H.263)
Muxing mode : Packed bitstream
Codec ID : DX50
Codec ID/Hint : DivX 5
Duration : 3mn 41s
Bit rate : 1 501 Kbps
Width : 720 pixels
Height : 388 pixels
Display aspect ratio : 1.856
Frame rate : 25.000 fps
Resolution : 8 bits
Colorimetry : 4:2:0
Scan type : Progressive
Bits/(Pixel*Frame) : 0.215
Stream size : 39.6 MiB (85%)
Title : Video
Writing library : DivX 6.2.5 (UTC 2006-06-16)
Audio
ID : 1
Format : MPEG Audio
Format version : Version 1
Format profile : Layer 3
Codec ID : 55
Codec ID/Hint : MP3
Duration : 3mn 41s
Bit rate mode : Constant
Bit rate : 256 Kbps
Channel(s) : 2 channels
Sampling rate : 48.0 KHz
Stream size : 6.75 MiB (14%)
Alignment : Split accross interleaves
Interleave, duration : 40 ms (1.00 video frame)
Interleave, preload duration : 50 ms
Title : Audio
 

Les mots 2001

Продолжительность: 4:49
Видео: 720x296 ~1300 kbps

Полная тех. информация о медиафайле

Format : DivX
Format/Info : Hack of AVI
File size : 54.2 MiB
Duration : 4mn 49s
Overall bit rate : 1 569 Kbps
Video
ID : 0
Format : MPEG-4 Visual
Format settings, BVOP : Yes
Format settings, QPel : No
Format settings, GMC : No warppoints
Format settings, Matrix : Default (H.263)
Muxing mode : Packed bitstream
Codec ID : DX50
Codec ID/Hint : DivX 5
Duration : 4mn 49s
Bit rate : 1 303 Kbps
Width : 720 pixels
Height : 296 pixels
Display aspect ratio : 2.40:1
Frame rate : 25.000 fps
Resolution : 8 bits
Colorimetry : 4:2:0
Scan type : Progressive
Bits/(Pixel*Frame) : 0.245
Stream size : 45.0 MiB (83%)
Title : Video
Writing library : DivX 6.2.5 (UTC 2006-06-16)
Audio
ID : 1
Format : MPEG Audio
Format version : Version 1
Format profile : Layer 3
Codec ID : 55
Codec ID/Hint : MP3
Duration : 4mn 49s
Bit rate mode : Constant
Bit rate : 256 Kbps
Channel(s) : 2 channels
Sampling rate : 48.0 KHz
Stream size : 8.84 MiB (16%)
Alignment : Split accross interleaves
Interleave, duration : 40 ms (1.00 video frame)
Interleave, preload duration : 50 ms
Title : Audio
 

Libertine 1986

Продолжительность: 9:20
Видео: 720x304 ~1200 kbps

Полная тех. информация о медиафайле

Format : DivX
Format/Info : Hack of AVI
File size : 98.0 MiB
Duration : 9mn 20s
Overall bit rate : 1 465 Kbps
Video
ID : 0
Format : MPEG-4 Visual
Format settings, BVOP : Yes
Format settings, QPel : No
Format settings, GMC : No warppoints
Format settings, Matrix : Default (H.263)
Muxing mode : Packed bitstream
Codec ID : DX50
Codec ID/Hint : DivX 5
Duration : 9mn 20s
Bit rate : 1 200 Kbps
Width : 720 pixels
Height : 304 pixels
Display aspect ratio : 2.35:1
Frame rate : 25.000 fps
Resolution : 8 bits
Colorimetry : 4:2:0
Scan type : Progressive
Bits/(Pixel*Frame) : 0.219
Stream size : 80.2 MiB (82%)
Title : Video
Writing library : DivX 6.2.5 (UTC 2006-06-16)
Audio
ID : 1
Format : MPEG Audio
Format version : Version 1
Format profile : Layer 3
Codec ID : 55
Codec ID/Hint : MP3
Duration : 9mn 20s
Bit rate mode : Constant
Bit rate : 256 Kbps
Channel(s) : 2 channels
Sampling rate : 48.0 KHz
Stream size : 17.1 MiB (17%)
Alignment : Split accross interleaves
Interleave, duration : 40 ms (1.00 video frame)
Interleave, preload duration : 50 ms
Title : Audio
 

Libertine 2 (Pourvu qu'elles soient douces) 1988

Продолжительность: 15:18
Видео: 720x304 ~1200 kbps

Полная тех. информация о медиафайле

Format : DivX
Format/Info : Hack of AVI
File size : 160 MiB
Duration : 15mn 18s
Overall bit rate : 1 466 Kbps
Video
ID : 0
Format : MPEG-4 Visual
Format settings, BVOP : Yes
Format settings, QPel : No
Format settings, GMC : No warppoints
Format settings, Matrix : Default (H.263)
Muxing mode : Packed bitstream
Codec ID : DX50
Codec ID/Hint : DivX 5
Duration : 15mn 18s
Bit rate : 1 200 Kbps
Width : 720 pixels
Height : 304 pixels
Display aspect ratio : 2.35:1
Frame rate : 25.000 fps
Resolution : 8 bits
Colorimetry : 4:2:0
Scan type : Progressive
Bits/(Pixel*Frame) : 0.219
Stream size : 131 MiB (82%)
Title : Video
Writing library : DivX 6.2.5 (UTC 2006-06-16)
Audio
ID : 1
Format : MPEG Audio
Format version : Version 1
Format profile : Layer 3
Codec ID : 55
Codec ID/Hint : MP3
Duration : 15mn 18s
Bit rate mode : Constant
Bit rate : 256 Kbps
Channel(s) : 2 channels
Sampling rate : 48.0 KHz
Stream size : 28.0 MiB (17%)
Alignment : Split accross interleaves
Interleave, duration : 40 ms (1.00 video frame)
Interleave, preload duration : 50 ms
Title : Audio
 

L`instant X 1995

Продолжительность: 4:13
Видео: 720x536 ~2100 kbps

Полная тех. информация о медиафайле

Format : DivX
Format/Info : Hack of AVI
File size : 71.3 MiB
Duration : 4mn 13s
Overall bit rate : 2 366 Kbps
Video
ID : 0
Format : MPEG-4 Visual
Format settings, BVOP : Yes
Format settings, QPel : No
Format settings, GMC : No warppoints
Format settings, Matrix : Default (H.263)
Muxing mode : Packed bitstream
Codec ID : DX50
Codec ID/Hint : DivX 5
Duration : 4mn 13s
Bit rate : 2 100 Kbps
Width : 720 pixels
Height : 536 pixels
Display aspect ratio : 4:3
Frame rate : 25.000 fps
Resolution : 8 bits
Colorimetry : 4:2:0
Scan type : Progressive
Bits/(Pixel*Frame) : 0.218
Stream size : 63.3 MiB (89%)
Title : Video
Writing library : DivX 6.2.5 (UTC 2006-06-16)
Audio
ID : 1
Format : MPEG Audio
Format version : Version 1
Format profile : Layer 3
Codec ID : 55
Codec ID/Hint : MP3
Duration : 4mn 13s
Bit rate mode : Constant
Bit rate : 256 Kbps
Channel(s) : 2 channels
Sampling rate : 48.0 KHz
Stream size : 7.72 MiB (11%)
Alignment : Split accross interleaves
Interleave, duration : 40 ms (1.00 video frame)
Interleave, preload duration : 50 ms
Title : Audio
 

Maman a tort 1984

Продолжительность: 3:58
Видео: 720x540 ~2000 kbps

Полная тех. информация о медиафайле

Format : DivX
Format/Info : Hack of AVI
File size : 64.2 MiB
Duration : 3mn 58s
Overall bit rate : 2 262 Kbps
Video
ID : 0
Format : MPEG-4 Visual
Format settings, BVOP : Yes
Format settings, QPel : No
Format settings, GMC : No warppoints
Format settings, Matrix : Default (H.263)
Muxing mode : Packed bitstream
Codec ID : DX50
Codec ID/Hint : DivX 5
Duration : 3mn 58s
Bit rate : 1 996 Kbps
Width : 720 pixels
Height : 540 pixels
Display aspect ratio : 4:3
Frame rate : 25.000 fps
Resolution : 8 bits
Colorimetry : 4:2:0
Scan type : Progressive
Bits/(Pixel*Frame) : 0.205
Stream size : 56.6 MiB (88%)
Title : Video
Writing library : DivX 6.2.5 (UTC 2006-06-16)
Audio
ID : 1
Format : MPEG Audio
Format version : Version 1
Format profile : Layer 3
Codec ID : 55
Codec ID/Hint : MP3
Duration : 3mn 58s
Bit rate mode : Constant
Bit rate : 256 Kbps
Channel(s) : 2 channels
Sampling rate : 48.0 KHz
Stream size : 7.26 MiB (11%)
Alignment : Split accross interleaves
Interleave, duration : 40 ms (1.00 video frame)
Interleave, preload duration : 50 ms
Title : Audio
 

Optimistique-moi 2000

Продолжительность: 4:23
Видео: 720x308 ~1300 kbps

Полная тех. информация о медиафайле

Format : DivX
Format/Info : Hack of AVI
File size : 49.1 MiB
Duration : 4mn 23s
Overall bit rate : 1 565 Kbps
Video
ID : 0
Format : MPEG-4 Visual
Format settings, BVOP : Yes
Format settings, QPel : No
Format settings, GMC : No warppoints
Format settings, Matrix : Default (H.263)
Muxing mode : Packed bitstream
Codec ID : DX50
Codec ID/Hint : DivX 5
Duration : 4mn 23s
Bit rate : 1 299 Kbps
Width : 720 pixels
Height : 308 pixels
Display aspect ratio : 2.35:1
Frame rate : 25.000 fps
Resolution : 8 bits
Colorimetry : 4:2:0
Scan type : Progressive
Bits/(Pixel*Frame) : 0.234
Stream size : 40.7 MiB (83%)
Title : Video
Writing library : DivX 6.2.5 (UTC 2006-06-16)
Audio
ID : 1
Format : MPEG Audio
Format version : Version 1
Format profile : Layer 3
Codec ID : 55
Codec ID/Hint : MP3
Duration : 4mn 23s
Bit rate mode : Constant
Bit rate : 256 Kbps
Channel(s) : 2 channels
Sampling rate : 48.0 KHz
Stream size : 8.03 MiB (16%)
Alignment : Split accross interleaves
Interleave, duration : 40 ms (1.00 video frame)
Interleave, preload duration : 50 ms
Title : Audio
 

Pardonne-moi 2002

Продолжительность: 4:13
Видео: 720x292 ~1300 kbps

Полная тех. информация о медиафайле

Format : DivX
Format/Info : Hack of AVI
File size : 47.3 MiB
Duration : 4mn 13s
Overall bit rate : 1 564 Kbps
Video
ID : 0
Format : MPEG-4 Visual
Format settings, BVOP : Yes
Format settings, QPel : No
Format settings, GMC : No warppoints
Format settings, Matrix : Default (H.263)
Muxing mode : Packed bitstream
Codec ID : DX50
Codec ID/Hint : DivX 5
Duration : 4mn 13s
Bit rate : 1 298 Kbps
Width : 720 pixels
Height : 292 pixels
Display aspect ratio : 2.466
Frame rate : 25.000 fps
Resolution : 8 bits
Colorimetry : 4:2:0
Scan type : Progressive
Bits/(Pixel*Frame) : 0.247
Stream size : 39.3 MiB (83%)
Title : Video
Writing library : DivX 6.2.5 (UTC 2006-06-16)
Audio
ID : 1
Format : MPEG Audio
Format version : Version 1
Format profile : Layer 3
Codec ID : 55
Codec ID/Hint : MP3
Duration : 4mn 13s
Bit rate mode : Constant
Bit rate : 256 Kbps
Channel(s) : 2 channels
Sampling rate : 48.0 KHz
Stream size : 7.75 MiB (16%)
Alignment : Split accross interleaves
Interleave, duration : 40 ms (1.00 video frame)
Interleave, preload duration : 50 ms
Title : Audio
 

Peut-etre toi 2006

Продолжительность: 4:04
Видео: 720x396 ~1600 kbps

Полная тех. информация о медиафайле

Format : DivX
Format/Info : Hack of AVI
File size : 54.3 MiB
Duration : 4mn 4s
Overall bit rate : 1 864 Kbps
Video
ID : 0
Format : MPEG-4 Visual
Format settings, BVOP : Yes
Format settings, QPel : No
Format settings, GMC : No warppoints
Format settings, Matrix : Default (H.263)
Muxing mode : Packed bitstream
Codec ID : DX50
Codec ID/Hint : DivX 5
Duration : 4mn 4s
Bit rate : 1 598 Kbps
Width : 720 pixels
Height : 396 pixels
Display aspect ratio : 16:9
Frame rate : 25.000 fps
Resolution : 8 bits
Colorimetry : 4:2:0
Scan type : Progressive
Bits/(Pixel*Frame) : 0.224
Stream size : 46.5 MiB (86%)
Title : Video
Writing library : DivX 6.2.5 (UTC 2006-06-16)
Audio
ID : 1
Format : MPEG Audio
Format version : Version 1
Format profile : Layer 3
Codec ID : 55
Codec ID/Hint : MP3
Duration : 4mn 4s
Bit rate mode : Constant
Bit rate : 256 Kbps
Channel(s) : 2 channels
Sampling rate : 48.0 KHz
Stream size : 7.46 MiB (14%)
Alignment : Split accross interleaves
Interleave, duration : 40 ms (1.00 video frame)
Interleave, preload duration : 50 ms
Title : Audio
 

Plus grandir 1985

Продолжительность: 6:11
Видео: 720x304 ~1200 kbps

Полная тех. информация о медиафайле

Format : DivX
Format/Info : Hack of AVI
File size : 64.8 MiB
Duration : 6mn 11s
Overall bit rate : 1 465 Kbps
Video
ID : 0
Format : MPEG-4 Visual
Format settings, BVOP : Yes
Format settings, QPel : No
Format settings, GMC : No warppoints
Format settings, Matrix : Default (H.263)
Muxing mode : Packed bitstream
Codec ID : DX50
Codec ID/Hint : DivX 5
Duration : 6mn 11s
Bit rate : 1 199 Kbps
Width : 720 pixels
Height : 304 pixels
Display aspect ratio : 2.35:1
Frame rate : 25.000 fps
Resolution : 8 bits
Colorimetry : 4:2:0
Scan type : Progressive
Bits/(Pixel*Frame) : 0.219
Stream size : 53.1 MiB (82%)
Title : Video
Writing library : DivX 6.2.5 (UTC 2006-06-16)
Audio
ID : 1
Format : MPEG Audio
Format version : Version 1
Format profile : Layer 3
Codec ID : 55
Codec ID/Hint : MP3
Duration : 6mn 11s
Bit rate mode : Constant
Bit rate : 256 Kbps
Channel(s) : 2 channels
Sampling rate : 48.0 KHz
Stream size : 11.3 MiB (17%)
Alignment : Split accross interleaves
Interleave, duration : 40 ms (1.00 video frame)
Interleave, preload duration : 50 ms
Title : Audio
 

Plus grandir (Live)

Продолжительность: 4:48
Видео: 720x436 ~1700 kbps

Полная тех. информация о медиафайле

Format : DivX
Format/Info : Hack of AVI
File size : 67.6 MiB
Duration : 4mn 48s
Overall bit rate : 1 968 Kbps
Video
ID : 0
Format : MPEG-4 Visual
Format settings, BVOP : Yes
Format settings, QPel : No
Format settings, GMC : No warppoints
Format settings, Matrix : Default (H.263)
Muxing mode : Packed bitstream
Codec ID : DX50
Codec ID/Hint : DivX 5
Duration : 4mn 48s
Bit rate : 1 702 Kbps
Width : 720 pixels
Height : 436 pixels
Display aspect ratio : 1.651
Frame rate : 25.000 fps
Resolution : 8 bits
Colorimetry : 4:2:0
Scan type : Progressive
Bits/(Pixel*Frame) : 0.217
Stream size : 58.4 MiB (86%)
Title : Video
Writing library : DivX 6.2.5 (UTC 2006-06-16)
Audio
ID : 1
Format : MPEG Audio
Format version : Version 1
Format profile : Layer 3
Codec ID : 55
Codec ID/Hint : MP3
Duration : 4mn 48s
Bit rate mode : Constant
Bit rate : 256 Kbps
Channel(s) : 2 channels
Sampling rate : 48.0 KHz
Stream size : 8.79 MiB (13%)
Alignment : Split accross interleaves
Interleave, duration : 40 ms (1.00 video frame)
Interleave, preload duration : 50 ms
Title : Audio
 

Q.I. 2005

Продолжительность: 3:51
Видео: 720x372 ~1500 kbps

Полная тех. информация о медиафайле

Format : DivX
Format/Info : Hack of AVI
File size : 48.7 MiB
Duration : 3mn 51s
Overall bit rate : 1 765 Kbps
Video
ID : 0
Format : MPEG-4 Visual
Format settings, BVOP : Yes
Format settings, QPel : No
Format settings, GMC : No warppoints
Format settings, Matrix : Default (H.263)
Muxing mode : Packed bitstream
Codec ID : DX50
Codec ID/Hint : DivX 5
Duration : 3mn 51s
Bit rate : 1 499 Kbps
Width : 720 pixels
Height : 372 pixels
Display aspect ratio : 1.935
Frame rate : 25.000 fps
Resolution : 8 bits
Colorimetry : 4:2:0
Scan type : Progressive
Bits/(Pixel*Frame) : 0.224
Stream size : 41.4 MiB (85%)
Title : Video
Writing library : DivX 6.2.5 (UTC 2006-06-16)
Audio
ID : 1
Format : MPEG Audio
Format version : Version 1
Format profile : Layer 3
Codec ID : 55
Codec ID/Hint : MP3
Duration : 3mn 51s
Bit rate mode : Constant
Bit rate : 256 Kbps
Channel(s) : 2 channels
Sampling rate : 48.0 KHz
Stream size : 7.07 MiB (15%)
Alignment : Split accross interleaves
Interleave, duration : 40 ms (1.00 video frame)
Interleave, preload duration : 50 ms
Title : Audio
 

Que mon coeur lache 1992

Продолжительность: 6:33
Видео: 720x464 ~1800 kbps

Полная тех. информация о медиафайле

Format : DivX
Format/Info : Hack of AVI
File size : 96.9 MiB
Duration : 6mn 33s
Overall bit rate : 2 067 Kbps
Video
ID : 0
Format : MPEG-4 Visual
Format settings, BVOP : Yes
Format settings, QPel : No
Format settings, GMC : No warppoints
Format settings, Matrix : Default (H.263)
Muxing mode : Packed bitstream
Codec ID : DX50
Codec ID/Hint : DivX 5
Duration : 6mn 33s
Bit rate : 1 802 Kbps
Width : 720 pixels
Height : 464 pixels
Display aspect ratio : 1.552
Frame rate : 25.000 fps
Resolution : 8 bits
Colorimetry : 4:2:0
Scan type : Progressive
Bits/(Pixel*Frame) : 0.216
Stream size : 84.4 MiB (87%)
Title : Video
Writing library : DivX 6.2.5 (UTC 2006-06-16)
Audio
ID : 1
Format : MPEG Audio
Format version : Version 1
Format profile : Layer 3
Codec ID : 55
Codec ID/Hint : MP3
Duration : 6mn 33s
Bit rate mode : Constant
Bit rate : 256 Kbps
Channel(s) : 2 channels
Sampling rate : 48.0 KHz
Stream size : 12.0 MiB (12%)
Alignment : Split accross interleaves
Interleave, duration : 40 ms (1.00 video frame)
Interleave, preload duration : 50 ms
Title : Audio
 

Redonne-moi 2005

Продолжительность: 4:22
Видео: 720x376 ~1500 kbps

Полная тех. информация о медиафайле

Format : DivX
Format/Info : Hack of AVI
File size : 55.2 MiB
Duration : 4mn 22s
Overall bit rate : 1 766 Kbps
Video
ID : 0
Format : MPEG-4 Visual
Format settings, BVOP : Yes
Format settings, QPel : No
Format settings, GMC : No warppoints
Format settings, Matrix : Default (H.263)
Muxing mode : Packed bitstream
Codec ID : DX50
Codec ID/Hint : DivX 5
Duration : 4mn 22s
Bit rate : 1 500 Kbps
Width : 720 pixels
Height : 376 pixels
Display aspect ratio : 1.915
Frame rate : 25.000 fps
Resolution : 8 bits
Colorimetry : 4:2:0
Scan type : Progressive
Bits/(Pixel*Frame) : 0.222
Stream size : 46.9 MiB (85%)
Title : Video
Writing library : DivX 6.2.5 (UTC 2006-06-16)
Audio
ID : 1
Format : MPEG Audio
Format version : Version 1
Format profile : Layer 3
Codec ID : 55
Codec ID/Hint : MP3
Duration : 4mn 22s
Bit rate mode : Constant
Bit rate : 256 Kbps
Channel(s) : 2 channels
Sampling rate : 48.0 KHz
Stream size : 8.01 MiB (14%)
Alignment : Split accross interleaves
Interleave, duration : 40 ms (1.00 video frame)
Interleave, preload duration : 50 ms
Title : Audio
 

Regrets 1991

Продолжительность: 6:14
Видео: 720x304 ~1200 kbps

Полная тех. информация о медиафайле

Format : DivX
Format/Info : Hack of AVI
File size : 65.5 MiB
Duration : 6mn 14s
Overall bit rate : 1 466 Kbps
Video
ID : 0
Format : MPEG-4 Visual
Format settings, BVOP : Yes
Format settings, QPel : No
Format settings, GMC : No warppoints
Format settings, Matrix : Default (H.263)
Muxing mode : Packed bitstream
Codec ID : DX50
Codec ID/Hint : DivX 5
Duration : 6mn 14s
Bit rate : 1 200 Kbps
Width : 720 pixels
Height : 304 pixels
Display aspect ratio : 2.35:1
Frame rate : 25.000 fps
Resolution : 8 bits
Colorimetry : 4:2:0
Scan type : Progressive
Bits/(Pixel*Frame) : 0.219
Stream size : 53.6 MiB (82%)
Title : Video
Writing library : DivX 6.2.5 (UTC 2006-06-16)
Audio
ID : 1
Format : MPEG Audio
Format version : Version 1
Format profile : Layer 3
Codec ID : 55
Codec ID/Hint : MP3
Duration : 6mn 14s
Bit rate mode : Constant
Bit rate : 256 Kbps
Channel(s) : 2 channels
Sampling rate : 48.0 KHz
Stream size : 11.4 MiB (17%)
Alignment : Split accross interleaves
Interleave, duration : 40 ms (1.00 video frame)
Interleave, preload duration : 50 ms
Title : Audio
 

Rever (Live)

Продолжительность: 6:05
Видео: 720x412 ~1600 kbps

Полная тех. информация о медиафайле

Format : DivX
Format/Info : Hack of AVI
File size : 81.4 MiB
Duration : 6mn 5s
Overall bit rate : 1 867 Kbps
Video
ID : 0
Format : MPEG-4 Visual
Format settings, BVOP : Yes
Format settings, QPel : No
Format settings, GMC : No warppoints
Format settings, Matrix : Default (H.263)
Muxing mode : Packed bitstream
Codec ID : DX50
Codec ID/Hint : DivX 5
Duration : 6mn 5s
Bit rate : 1 601 Kbps
Width : 720 pixels
Height : 412 pixels
Display aspect ratio : 16:9
Frame rate : 25.000 fps
Resolution : 8 bits
Colorimetry : 4:2:0
Scan type : Progressive
Bits/(Pixel*Frame) : 0.216
Stream size : 69.8 MiB (86%)
Title : Video
Writing library : DivX 6.2.5 (UTC 2006-06-16)
Audio
ID : 1
Format : MPEG Audio
Format version : Version 1
Format profile : Layer 3
Codec ID : 55
Codec ID/Hint : MP3
Duration : 6mn 5s
Bit rate mode : Constant
Bit rate : 256 Kbps
Channel(s) : 2 channels
Sampling rate : 48.0 KHz
Stream size : 11.2 MiB (14%)
Alignment : Split accross interleaves
Interleave, duration : 40 ms (1.00 video frame)
Interleave, preload duration : 50 ms
Title : Audio
 

Sans contrefacon 1987

Продолжительность: 7:11
Видео: 720x304 ~1200 kbps

Полная тех. информация о медиафайле

Format : DivX
Format/Info : Hack of AVI
File size : 75.4 MiB
Duration : 7mn 11s
Overall bit rate : 1 466 Kbps
Video
ID : 0
Format : MPEG-4 Visual
Format settings, BVOP : Yes
Format settings, QPel : No
Format settings, GMC : No warppoints
Format settings, Matrix : Default (H.263)
Muxing mode : Packed bitstream
Codec ID : DX50
Codec ID/Hint : DivX 5
Duration : 7mn 11s
Bit rate : 1 200 Kbps
Width : 720 pixels
Height : 304 pixels
Display aspect ratio : 2.35:1
Frame rate : 25.000 fps
Resolution : 8 bits
Colorimetry : 4:2:0
Scan type : Progressive
Bits/(Pixel*Frame) : 0.219
Stream size : 61.7 MiB (82%)
Title : Video
Writing library : DivX 6.2.5 (UTC 2006-06-16)
Audio
ID : 1
Format : MPEG Audio
Format version : Version 1
Format profile : Layer 3
Codec ID : 55
Codec ID/Hint : MP3
Duration : 7mn 11s
Bit rate mode : Constant
Bit rate : 256 Kbps
Channel(s) : 2 channels
Sampling rate : 48.0 KHz
Stream size : 13.2 MiB (17%)
Alignment : Split accross interleaves
Interleave, duration : 40 ms (1.00 video frame)
Interleave, preload duration : 50 ms
Title : Audio
 

Sans logique 1989

Продолжительность: 5:34
Видео: 720x304 ~1200 kbps

Полная тех. информация о медиафайле

Format : DivX
Format/Info : Hack of AVI
File size : 58.5 MiB
Duration : 5mn 34s
Overall bit rate : 1 468 Kbps
Video
ID : 0
Format : MPEG-4 Visual
Format settings, BVOP : Yes
Format settings, QPel : No
Format settings, GMC : No warppoints
Format settings, Matrix : Default (H.263)
Muxing mode : Packed bitstream
Codec ID : DX50
Codec ID/Hint : DivX 5
Duration : 5mn 34s
Bit rate : 1 202 Kbps
Width : 720 pixels
Height : 304 pixels
Display aspect ratio : 2.35:1
Frame rate : 25.000 fps
Resolution : 8 bits
Colorimetry : 4:2:0
Scan type : Progressive
Bits/(Pixel*Frame) : 0.220
Stream size : 47.9 MiB (82%)
Title : Video
Writing library : DivX 6.2.5 (UTC 2006-06-16)
Audio
ID : 1
Format : MPEG Audio
Format version : Version 1
Format profile : Layer 3
Codec ID : 55
Codec ID/Hint : MP3
Duration : 5mn 34s
Bit rate mode : Constant
Bit rate : 256 Kbps
Channel(s) : 2 channels
Sampling rate : 48.0 KHz
Stream size : 10.2 MiB (17%)
Alignment : Split accross interleaves
Interleave, duration : 40 ms (1.00 video frame)
Interleave, preload duration : 50 ms
Title : Audio
 

Si j`avais au moins 2009

Входит в The Farmer Project

Si j`avais au moins (Live) 2009

Продолжительность: 7:04
Видео: 720x400 ~1800 kbps

Полная тех. информация о медиафайле

Format : AVI
Format/Info : Audio Video Interleave
File size : 104 MiB
Duration : 7mn 4s
Overall bit rate : 2 062 Kbps
Writing application : DivX 0.0.0.0000
IDFV : DMF 2.0.0
Video
ID : 0
Format : MPEG-4 Visual
Format settings, BVOP : Yes
Format settings, QPel : No
Format settings, GMC : No warppoints
Format settings, Matrix : Default (H.263)
Muxing mode : Packed bitstream
Codec ID : DX50
Codec ID/Hint : DivX 5
Duration : 7mn 4s
Bit rate : 1 799 Kbps
Width : 720 pixels
Height : 400 pixels
Display aspect ratio : 16:9
Frame rate : 25.000 fps
Resolution : 8 bits
Colorimetry : 4:2:0
Scan type : Progressive
Bits/(Pixel*Frame) : 0.250
Stream size : 91.0 MiB (87%)
Title : Video
Writing library : DivX 2991
Audio
ID : 1
Format : MPEG Audio
Format version : Version 1
Format profile : Layer 3
Codec ID : 55
Codec ID/Hint : MP3
Duration : 7mn 4s
Bit rate mode : Constant
Bit rate : 256 Kbps
Channel(s) : 2 channels
Sampling rate : 48.0 KHz
Stream size : 13.0 MiB (12%)
Alignment : Split accross interleaves
Interleave, duration : 40 ms (1.00 video frame)
Interleave, preload duration : 500 ms
Title : Audio
 

Slipping Away (avec Moby) 2006

Продолжительность: 3:55
Видео: 720x536 ~2100 kbps

Полная тех. информация о медиафайле

Format : DivX
Format/Info : Hack of AVI
File size : 66.4 MiB
Duration : 3mn 55s
Overall bit rate : 2 368 Kbps
Video
ID : 0
Format : MPEG-4 Visual
Format settings, BVOP : Yes
Format settings, QPel : No
Format settings, GMC : No warppoints
Format settings, Matrix : Default (H.263)
Muxing mode : Packed bitstream
Codec ID : DX50
Codec ID/Hint : DivX 5
Duration : 3mn 55s
Bit rate : 2 103 Kbps
Width : 720 pixels
Height : 536 pixels
Display aspect ratio : 4:3
Frame rate : 25.000 fps
Resolution : 8 bits
Colorimetry : 4:2:0
Scan type : Progressive
Bits/(Pixel*Frame) : 0.218
Stream size : 58.9 MiB (89%)
Title : Video
Writing library : DivX 6.2.5 (UTC 2006-06-16)
Audio
ID : 1
Format : MPEG Audio
Format version : Version 1
Format profile : Layer 3
Codec ID : 55
Codec ID/Hint : MP3
Duration : 3mn 55s
Bit rate mode : Constant
Bit rate : 256 Kbps
Channel(s) : 2 channels
Sampling rate : 48.0 KHz
Stream size : 7.18 MiB (11%)
Alignment : Split accross interleaves
Interleave, duration : 40 ms (1.00 video frame)
Interleave, preload duration : 50 ms
Title : Audio
 

Souviens-toi du jour 1999

Продолжительность: 5:08
Видео: 720x540 ~2100 kbps

Полная тех. информация о медиафайле

Format : DivX
Format/Info : Hack of AVI
File size : 87.0 MiB
Duration : 5mn 8s
Overall bit rate : 2 365 Kbps
Video
ID : 0
Format : MPEG-4 Visual
Format settings, BVOP : Yes
Format settings, QPel : No
Format settings, GMC : No warppoints
Format settings, Matrix : Default (H.263)
Muxing mode : Packed bitstream
Codec ID : DX50
Codec ID/Hint : DivX 5
Duration : 5mn 8s
Bit rate : 2 099 Kbps
Width : 720 pixels
Height : 540 pixels
Display aspect ratio : 4:3
Frame rate : 25.000 fps
Resolution : 8 bits
Colorimetry : 4:2:0
Scan type : Progressive
Bits/(Pixel*Frame) : 0.216
Stream size : 77.2 MiB (89%)
Title : Video
Writing library : DivX 6.2.5 (UTC 2006-06-16)
Audio
ID : 1
Format : MPEG Audio
Format version : Version 1
Format profile : Layer 3
Codec ID : 55
Codec ID/Hint : MP3
Duration : 5mn 8s
Bit rate mode : Constant
Bit rate : 256 Kbps
Channel(s) : 2 channels
Sampling rate : 48.0 KHz
Stream size : 9.42 MiB (11%)
Alignment : Split accross interleaves
Interleave, duration : 40 ms (1.00 video frame)
Interleave, preload duration : 50 ms
Title : Audio
 

The Farmer Project 2009

Продолжительность: 13:18
Видео: 720x392 ~1600 kbps
Degeneration
Si j'avais au moins

Полная тех. информация о медиафайле

Format : DivX
Format/Info : Hack of AVI
File size : 178 MiB
Duration : 13mn 18s
Overall bit rate : 1 866 Kbps
Video
ID : 0
Format : MPEG-4 Visual
Format settings, BVOP : Yes
Format settings, QPel : No
Format settings, GMC : No warppoints
Format settings, Matrix : Default (H.263)
Muxing mode : Packed bitstream
Codec ID : DX50
Codec ID/Hint : DivX 5
Duration : 13mn 18s
Bit rate : 1 600 Kbps
Width : 720 pixels
Height : 392 pixels
Display aspect ratio : 16:9
Frame rate : 25.000 fps
Resolution : 8 bits
Colorimetry : 4:2:0
Scan type : Progressive
Bits/(Pixel*Frame) : 0.227
Stream size : 152 MiB (86%)
Title : Video
Writing library : DivX 6.2.5 (UTC 2006-06-16)
Audio
ID : 1
Format : MPEG Audio
Format version : Version 1
Format profile : Layer 3
Codec ID : 55
Codec ID/Hint : MP3
Duration : 13mn 18s
Bit rate mode : Constant
Bit rate : 256 Kbps
Channel(s) : 2 channels
Sampling rate : 48.0 KHz
Stream size : 24.4 MiB (14%)
Alignment : Split accross interleaves
Interleave, duration : 40 ms (1.00 video frame)
Interleave, preload duration : 50 ms
Title : Audio
 

Tristana 1987

Продолжительность: 10:01
Видео: 720x304 ~1200 kbps

Полная тех. информация о медиафайле

Format : DivX
Format/Info : Hack of AVI
File size : 105 MiB
Duration : 10mn 1s
Overall bit rate : 1 466 Kbps
Video
ID : 0
Format : MPEG-4 Visual
Format settings, BVOP : Yes
Format settings, QPel : No
Format settings, GMC : No warppoints
Format settings, Matrix : Default (H.263)
Muxing mode : Packed bitstream
Codec ID : DX50
Codec ID/Hint : DivX 5
Duration : 10mn 1s
Bit rate : 1 200 Kbps
Width : 720 pixels
Height : 304 pixels
Display aspect ratio : 2.35:1
Frame rate : 25.000 fps
Resolution : 8 bits
Colorimetry : 4:2:0
Scan type : Progressive
Bits/(Pixel*Frame) : 0.219
Stream size : 86.1 MiB (82%)
Title : Video
Writing library : DivX 6.2.5 (UTC 2006-06-16)
Audio
ID : 1
Format : MPEG Audio
Format version : Version 1
Format profile : Layer 3
Codec ID : 55
Codec ID/Hint : MP3
Duration : 10mn 1s
Bit rate mode : Constant
Bit rate : 256 Kbps
Channel(s) : 2 channels
Sampling rate : 48.0 KHz
Stream size : 18.4 MiB (17%)
Alignment : Split accross interleaves
Interleave, duration : 40 ms (1.00 video frame)
Interleave, preload duration : 50 ms
Title : Audio
 

XXL 1995

Продолжительность: 4:23
Видео: 720x540 ~2100 kbps

Полная тех. информация о медиафайле

Format : DivX
Format/Info : Hack of AVI
File size : 74.2 MiB
Duration : 4mn 23s
Overall bit rate : 2 365 Kbps
Video
ID : 0
Format : MPEG-4 Visual
Format settings, BVOP : Yes
Format settings, QPel : No
Format settings, GMC : No warppoints
Format settings, Matrix : Default (H.263)
Muxing mode : Packed bitstream
Codec ID : DX50
Codec ID/Hint : DivX 5
Duration : 4mn 23s
Bit rate : 2 099 Kbps
Width : 720 pixels
Height : 540 pixels
Display aspect ratio : 4:3
Frame rate : 25.000 fps
Resolution : 8 bits
Colorimetry : 4:2:0
Scan type : Progressive
Bits/(Pixel*Frame) : 0.216
Stream size : 65.8 MiB (89%)
Title : Video
Writing library : DivX 6.2.5 (UTC 2006-06-16)
Audio
ID : 1
Format : MPEG Audio
Format version : Version 1
Format profile : Layer 3
Codec ID : 55
Codec ID/Hint : MP3
Duration : 4mn 23s
Bit rate mode : Constant
Bit rate : 256 Kbps
Channel(s) : 2 channels
Sampling rate : 48.0 KHz
Stream size : 8.03 MiB (11%)
Alignment : Split accross interleaves
Interleave, duration : 40 ms (1.00 video frame)
Interleave, preload duration : 50 ms
Title : Audio
 

Творческая деятельность певицы



Mylene Farmer (настоящее имя - Helene Gauthier) родилась 12 сентября 1961 года в канадском городе Монреаль. Однако в Канаде она жила недолго, так как ее родители по окончании рабочего контракта в 1969 году переехали в Париж. Ее первым желанием было стать актрисой (и оно все еще сильно), поэтому Фармер решила получить соответствующее образование. Именно в те годы она встретила Laurent Boutonnat - человека, который надолго стал ее творческим спутником и сильно повлиял на карьеру Милен в мире музыки. Когда в далеком 1984 году Милен в возрасте 23 лет записала свою первую песню "Maman a tort" (Мама не права) с помощью Лорана Бутонна (музыка) и Джерома Дахана (слова), было просто невообразимо, как ее карьера за такое короткое время разовьется до статуса французской суперзвезды.
Примерно в это же время она сменила свою настоящую фамилию Готье на Фармер. Было ли это решение принято только ей самой, или под влиянием Лорана - неясно, однако принято считать, что эта фамилия взята ею в честь американской актрисы 30-х годов Frances Farmer, которая подавала большие надежды, но из-за пристрастия к алкоголю провела большую часть 40-х годов в психиатрической лечебнице. Большой прорыв, несомненно, наступил в 1985-87 г.г., когда Милен сменила звукозаписывающую компанию "RCA" на "Polydor" и выпустила синглы "Libertine" (Распутница) и "Tristana", а также свой первый альбом "Cendres de Lune" (Пепел Луны). В это же время Милен перекрасила свои от рождения коричневые волосы в рыжие - как у матери. Союз Лорана и Милен стал незыблемым, и вскоре ангельский голос Милен вместе с композиторскими и режиссерскими талантами Лорана начали завоевывать внимание французской публики.
Однако, это было только начало... Ее успех еще больше укрепился с выходом песен "Sans сontrefacon" и "Pourvu qu'elles soient douces/Libertine II" вместе с поразительными видеоклипами-фильмами. Последовали золотые диски и награды, о ней заговорила пресса.
Хотя Милен всегда утверждала, что ей неприятно давать интервью, в конце 80-х ее появления на телевидении стали достаточно регулярными. Однако вскоре выяснилось, что "Фармеромания" тяготит ее, и ей стало чрезвычайно не хватать уединения, поэтому после ряда концертов 1989 года ее появления стали реже.
После относительно короткого отсутствия Милен вернулась в 1991 году с хитовым альбомом "L'autre" (Другая). Он выявил новые качества Милен; его 50/50 танцевальных песен и медленных миксов позволили Милен показать, насколько силен стал ее вокальный талант. Хит "Desenchantee" помог Милен приобрести поклонников и в других, не франкоговорящих странах. Как и в случае с предыдущим альбомом, было выпущено 4 сингла, последний из которых - "Beyond my control" - вышел в конце 1992 года. Следующий сингл, "Que mon couer lache", вышел с целью раскрутки альбома компиляций "Dance Remixes", но затем, в начале 1993 года, Милен снова исчезла с глаз публики.
Это отсутствие, однако, не было вызвано подготовкой нового альбома, а объяснялось работой над огромным и, возможно, слишком амбициозным проектом -фильмом "Giorgino". "Giorgino" был ожидаемым шагом Милен и Лорана в сторону киноиндустрии. Это был действительно большой проект, и, хотя пресса опубликовала статьи о фильме в январе 1994 года, трехчасовая премьера состоялась лишь в октябре 1994 года. Снятый на английском языке, фильм, тем не менее, был полностью в духе французского кинематографа; такой фильм никогда не мог бы появиться в Голливуде. Многие при просмотре сравнивали его с клипом "Разочарование". Критики дали фильму смешанную оценку, и, как многие другие фильмы с участием музыкантов, он был быстро забыт.
Однако пришло время возвращаться в студию звукозаписи. Пришло время меняться... После почти трехлетнего перерыва Милен наконец представила новый альбом "Anamorphosee" (Изменившаяся) своим терпеливым поклонникам. Музыка изменилась чрезвычайно сильно, она стала во многом более живой благодаря гитаре Jeff Dahlgren; голос Милен также изменился, что можно отнести на счет ее пребывания в Лос-Анджелесе в течение последних лет. Большинство музыкальных композиций было по-прежнему написано Лораном, что еще раз показало, насколько велики его композиторские способности - достаточно сравнить бурю рока в альбоме "Изменившаяся" со спокойным, местами даже элегичным саундтреком к фильму "Джиорджино".
В первые несколько недель с момента выхода в конце 1995 года новый альбом продавался по 40 тысяч копий в день, наглядно демонстрируя, что Милен все еще являлась одной из самых популярных певиц Франции. Альбом получил хорошие оценки у большинства музыкальных журналов. Милен вернулась, сильная как никогда! Первым синглом, выпущенным с нового альбома, стал "XXL". Сопутствующий ему видеоклип, как и музыка, показал, насколько глубоки изменения. Клип был снят в черно-белом цвете, а режиссером вместо Лорана выступил Marcus Nispel. Своими аккордами мощного рока он прогремел на экранах музыкальных каналов в конце 1995 г. Вскоре вышедший второй клип "L'Instant X" (Мгновение X) также был снят Маркусом Ниспелем.
Вслед за этим синглом наконец был анонсирован столь долго ожидаемый концертный тур 1996 года. Начавшись в Тулоне, турне должно было пройти по всей Франции, а также в Бельгии и Швейцарии. Неудивительно, что концерты также были диаметрально противоположны туру 1989 года; представление было большим, громким и очень американским. С помощью группы американских музыкантов и танцоров Милен показала своей аудитории совершенно другую сторону свой личности - гораздо более счастливую, улыбающуюся и веселую.
В это время вышел третий сингл "California" вместе с видеоклипом. Режиссером его был Abel Ferrara; сюжет был намного сложнее, чем у предыдущих двух. Милен снова была на вершине мира, но за углом таилось несчастье... 15 июня 1996 года, во время концерта в Лионе, Милен упала в конце песни "XXL", приведя аудиторию в замешательство. Поклонники терпеливо ожидали обьяснений случившемуся. Печальной новостью стало то, что Милен сломала запястье, и остаток турне будет отменен. Милен была безжалостно сброшена с вершины мира. Но, как поется в песне "Tomber 7 fois" (Упасть 7 раз), Милен должна была вернуться. Отмененные концерты были перенесены на декабрь 1996 года, давая людям еще один шанс увидеть ее вживую в этом году. В это же время вышел четвертый сингл "Comme j'al mal" (Как мне больно).
Вскоре после завершения турне в начале 1997 года стали просачиваться слухи о возможном выходе диска с концертом 1996 года. Эти слухи частично подтвердились с выходом сингла "Rever", содержавшего концертную версию песни. Следующим синглом, выпущенным в мае 1997 г. стал достаточно странный дуэт с Халедом (Khaled); это была перепевка старой песни Michel Polnareff "La poupee qui fait non". Сразу вслед за ним для поддержания фанатов в трансе было выпущено большое количество материалов, включая две видеосборки, видеоверсию концерта 1996 года и, конечно же, двойной CD с записью концерта!
1999 год ознаменован выходом совершенно потрясяющего и не похожего на все остальные альбомы Милен "Innamoramento", были сняты два новых видеоклипа - "L'Ame-stram-gram" и "Je te rends ton amour" - и выпущены соответствующие синглы; появилась таинственная песня "Effets secondaires". 21 сентября начался новый концертный тур "Mylenium Tour" и осенью 1999 года Милен посетила Россию.
И еще для любознательных: рост Милен Фармер равен 169 см, вес - 45 кг.
Источник информации: http://www.zvezdi.ru/catalog/F/mylene_farmer_bio.html
Скачать раздачу

Просто зарегистрируйтесь и качайте на максимальной скорости (до 100 мбит/с)!

Обратите внимание, что локальная скорость может быть достинута лишь у абонентов интернет-провайдеров Ивановской области. Если вы не являетесь жителем Ивановской области (не подключены к местным стационарным интернет-провайдерам), скорость скачивания с ресурса у вас будет обычной, согласно вашему тарифному плану. Если же вы хотите использовать весь спектр возможностей ресурса - регистрация является обязательной, ведь это так просто!

 

Гость

+3  
Kelerva
Убедительно прошу скачать релиз и сделать по три скриншота на каждый из 47 клипов. Когда 141 скриншот будет готов, советую обратить внимание сколько на это ушло времени и удалить их все, на загрузчик не заливая. Думаю только снятия скриншотов хватит для того, чтобы понять всю идиотичность выдвигаемых к релизеру требований.
 

Гость

0  
Kelerva
Для начала, оформите хоть один сходные релиз самостоятельно, а уж потом и от релизеров такое требовать будете.
Оформлено.
 

Гость

0  
замечательный релиз.огромное спасибо.
 

Вектор

0  
DENIKIN На здоровье!-) Мне тоже понравился, когда с источника его взял - потому и выложил тут. Искусство должно принадлежать народу, не так ли?-)
 

tykerman

0  
Спасибо!
 

YURI

0  
Спасибо!!!
Very Happy Very Happy Very Happy
 
▲ Наверх